<?xml version="1.0" standalone="no"?>
<!DOCTYPE svg PUBLIC "-//W3C//DTD SVG 1.1//EN" "http://www.w3.org/Graphics/SVG/1.1/DTD/svg11.dtd" >
<svg>
<metadata>
Created by FontForge 20090914 at Fri Oct 17 16:30:53 2014
 By www-data
</metadata>
<defs>
<font id="PillGothic300mg-Bold" horiz-adv-x="447" >
  <font-face 
    font-family="Pill Gothic 300mg Rg"
    font-weight="700"
    font-stretch="normal"
    units-per-em="1000"
    panose-1="2 0 5 3 3 0 0 2 0 4"
    ascent="800"
    descent="-200"
    x-height="489.997"
    cap-height="680"
    bbox="-60 -283.003 891.996 956"
    underline-thickness="50"
    underline-position="-50"
    unicode-range="U+0020-U+FB04"
  />
<missing-glyph horiz-adv-x="218" 
 />
    <glyph glyph-name="germandbls" unicode="ss" horiz-adv-x="573" 
d="M37 490l44.9971 -0.00195312v110c0 41.333 12.5 74.833 37.5 100.5s58.5 38.5 100.5 38.5c10 0 21 -1.16699 33 -3.5s24.167 -5.5 36.5 -9.5s24.333 -8.66699 36 -14s21.834 -10.666 30.501 -15.999l-48 -87c-9.33301 3.33301 -20.666 8 -33.999 14s-25.666 9 -36.999 9
c-10.667 0 -18.667 -1.83301 -24 -5.5s-9.33301 -8.66699 -12 -15s-4.16699 -13.833 -4.5 -22.5s-0.5 -18 -0.5 -28v-71h310v-71l-76 -117h2c32 -6 56.167 -17.667 72.5 -35s24.5 -42.333 24.5 -75v-84c0 -20 -3.66699 -37.167 -11 -51.5s-17.333 -26.166 -30 -35.499
s-27.5 -16.333 -44.5 -21s-35.5 -7 -55.5 -7c-32 0 -59.667 5.5 -83 16.5s-43 30.167 -59 57.5l70 66c2 -5.33301 5.16699 -10.833 9.5 -16.5s9.33301 -11 15 -16s11.667 -9.16699 18 -12.5s12.5 -5 18.5 -5c14 0 23.5 3.33301 28.5 10s7.5 17.667 7.5 33v43
c0 9.33301 -0.333008 17.333 -1 24s-2.33398 12 -5.00098 16s-6.66699 7 -12 9s-12.666 3 -21.999 3h-79v72l74 110h-167v-403h-119v405h-45v85z" />
    <glyph glyph-name="arrowleft" unicode="&#x3c;&#x2d;" horiz-adv-x="356" 
d="M220 399l-67 -95h166v-104h-166l62 -90l-45 -41l-133 183l137 193z" />
    <glyph glyph-name="arrowright" unicode="&#x2d;&#x3e;" horiz-adv-x="387" 
d="M194 468l156 -216l-137 -209l-67 57l62 100h-171v104h171l-76 105z" />
    <glyph glyph-name="smiley" unicode="&#x28;&#x3a;" horiz-adv-x="666" 
d="M25 351c0 50.667 6.49805 98.167 19.498 142.5s32.5 82.833 58.5 115.5s58.333 58.334 97 77.001s83.667 28 135 28c50 0 94.333 -9.5 133 -28.5s71 -45 97 -78s45.833 -71.5 59.5 -115.5s20.5 -91 20.5 -141c0 -50.667 -6.66699 -98 -20 -142
s-33.166 -82.333 -59.499 -115s-58.833 -58.334 -97.5 -77.001s-83 -28 -133 -28s-94.333 9.5 -133 28.5s-71.167 44.833 -97.5 77.5s-46.166 71 -59.499 115s-20 91 -20 141zM104.998 351c0 -38.667 4.66895 -75.666 14.002 -110.999s23.666 -66.333 42.999 -93
s43.5 -47.834 72.5 -63.501s62.833 -23.5 101.5 -23.5c38 0 71.333 8 100 24s52.5 37.333 71.5 64s33.167 57.5 42.5 92.5s14 71.833 14 110.5c0 39.333 -4.5 76.5 -13.5 111.5s-23 65.5 -42 91.5s-42.833 46.667 -71.5 62s-62.667 23 -102 23
c-38.667 0 -72.334 -7.83301 -101.001 -23.5s-52.5 -36.667 -71.5 -63s-33.333 -57 -43 -92s-14.5 -71.5 -14.5 -109.5zM521 308.001c-12 -44 -31.3311 -79.333 -57.998 -106s-62.334 -40 -107.001 -40h-46c-21.333 0 -40.666 3.83301 -57.999 11.5s-32.833 18 -46.5 31
s-25.334 28.333 -35.001 46s-17.5 36.834 -23.5 57.501l75 32c3.33301 -12.667 7.16602 -25.167 11.499 -37.5s10 -23.333 17 -33s15.333 -17.334 25 -23.001s21.167 -8.5 34.5 -8.5h46c12.667 0 24 3.16699 34 9.5s18.667 14.666 26 24.999s13.833 21.833 19.5 34.5
s10.5 25.334 14.5 38.001zM200.002 507.001h103v-108h-103v108zM368.002 507.001h103v-108h-103v108z" />
    <glyph glyph-name="f_j" unicode="fj" horiz-adv-x="546" 
d="M275 725c15.333 0 31.834 -1.50098 49.501 -4.50098s35.667 -6.66699 54 -11s36.333 -9.5 54 -15.5s33.834 -12 48.501 -18l-30 -104c-26 9.33301 -53.833 18.833 -83.5 28.5s-58.167 14.5 -85.5 14.5c-10 0 -18.5 -0.333008 -25.5 -1s-12.833 -2.33398 -17.5 -5.00098
s-8 -6.66699 -10 -12s-3 -12.666 -3 -21.999v-85h77v-86h-79v-404h-120v404h-67v86h67v93c0 26.667 3.83301 49 11.5 67s18.667 32.5 33 43.5s32.166 18.833 53.499 23.5s45.666 7.33398 72.999 8.00098zM350.001 489.999l119.997 -0.000976562v-457
c0 -74 -16.833 -131.667 -50.5 -173s-86.5 -71 -158.5 -89l-31 85c20.667 12.667 38.334 24.834 53.001 36.501s26.834 24.5 36.501 38.5s16.834 30 21.501 48s7 39 7 63z" />
    <glyph glyph-name="ff" unicode="ff" horiz-adv-x="577" 
d="M243 736c54.667 0 105.331 -16.333 151.998 -49c15.333 17.333 32.166 29.666 50.499 36.999s39.5 11 63.5 11c8 0 16.833 -1.16699 26.5 -3.5s19.5 -5.33301 29.5 -9s19.833 -7.83398 29.5 -12.501s17.834 -9 24.501 -13l-40 -87c-12 8.66699 -22.667 15.5 -32 20.5
s-20.666 7.5 -33.999 7.5c-9.33301 0 -16.5 -1.83301 -21.5 -5.5s-8.66699 -8.5 -11 -14.5s-3.66602 -13 -3.99902 -21s-0.5 -16.667 -0.5 -26v-81h92v-86h-92v-404h-117v404h-74v86h74v81v23c-13.333 12 -29.5 20.333 -48.5 25s-37.167 7 -54.5 7
c-18 0 -32.833 -4.66699 -44.5 -14s-17.5 -22.666 -17.5 -39.999v-82h77v-86h-77v-404h-120v404h-76v86h76v88c0 52.667 14.833 91.834 44.5 117.501s71.167 39.167 124.5 40.5z" />
    <glyph glyph-name="fi" unicode="fi" horiz-adv-x="531" 
d="M252 745c15.333 0 32.666 -1.83203 51.999 -5.49902s39 -8.83398 59 -15.501s39 -14.167 57 -22.5s33.333 -17.5 46 -27.5l-49 -96c-27.333 15.333 -54.333 29.333 -81 42s-54 19 -82 19c-15.333 0 -26.166 -3.66699 -32.499 -11s-9.5 -18.333 -9.5 -33v-105h78v-86h-79
v-404h-121v404h-74v86h74v117c0 48 15 83 45 105s69 33 117 33zM344 490.001h121v-490h-121v490z" />
    <glyph glyph-name="fl" unicode="fl" horiz-adv-x="595" 
d="M261 746c13.333 0 29.167 -1 47.5 -3s37 -4.83301 56 -8.5s37.5 -8 55.5 -13s33 -10.5 45 -16.5h45v-705h-121v620c-6 3.33301 -14.833 6 -26.5 8s-23.834 3.66699 -36.501 5s-25 2.33301 -37 3s-21.333 1 -28 1c-31.333 0 -47 -13.667 -47 -41v-106h85v-87h-85v-403
h-123v403h-75v87h77v108c0 49.333 15.333 86.333 46 111s71.334 37 122.001 37z" />
    <glyph glyph-name="wink" unicode="&#x28;&#x3b;" horiz-adv-x="666" 
d="M25 350c0 50.667 6.49805 98.167 19.498 142.5s32.5 82.833 58.5 115.5s58.333 58.334 97 77.001s83.667 28 135 28c50 0 94.333 -9.5 133 -28.5s71 -45 97 -78s45.833 -71.5 59.5 -115.5s20.5 -91 20.5 -141c0 -50.667 -6.66699 -98 -20 -142
s-33.166 -82.333 -59.499 -115s-58.833 -58.334 -97.5 -77.001s-83 -28 -133 -28s-94.333 9.5 -133 28.5s-71.167 44.833 -97.5 77.5s-46.166 71 -59.499 115s-20 91 -20 141zM104.998 350c0 -38.667 4.66895 -75.666 14.002 -110.999s23.666 -66.333 42.999 -93
s43.5 -47.834 72.5 -63.501s62.833 -23.5 101.5 -23.5c38 0 71.333 8 100 24s52.5 37.333 71.5 64s33.167 57.5 42.5 92.5s14 71.833 14 110.5c0 39.333 -4.5 76.5 -13.5 111.5s-23 65.5 -42 91.5s-42.833 46.667 -71.5 62s-62.667 23 -102 23
c-38.667 0 -72.334 -7.83301 -101.001 -23.5s-52.5 -36.667 -71.5 -63s-33.333 -57 -43 -92s-14.5 -71.5 -14.5 -109.5zM520 294.001c-13.333 -44 -32.999 -79.498 -58.999 -106.498s-61.333 -40.5 -106 -40.5h-45c-20.667 0 -39.834 3.83301 -57.501 11.5
s-33.167 18.167 -46.5 31.5s-25 29 -35 47s-18 37 -24 57l74 33c3.33301 -12.667 7.33301 -25.334 12 -38.001s10.5 -23.834 17.5 -33.501s15.333 -17.5 25 -23.5s21.167 -9 34.5 -9h45c12.667 0 24 3.16699 34 9.5s18.667 14.666 26 24.999s13.833 21.833 19.5 34.5
s10.5 25.334 14.5 38.001zM191.001 506.003h113v-109h-113v109zM352.001 422.003v57h163v-57h-163z" />
    <glyph glyph-name="T_h" unicode="Th" horiz-adv-x="894" 
d="M9 570v110h455v-110h-165v-570h-124v570h-166zM707 500c28.667 0 52.1689 -3.5 70.502 -10.5s32.833 -17.5 43.5 -31.5s18 -31.667 22 -53s6 -46.333 6 -75v-330h-124v330c0 21.333 -3.83301 36.666 -11.5 45.999s-22.167 14 -43.5 14c-12 0 -23 -2.83301 -33 -8.5
s-18.667 -13.167 -26 -22.5s-13 -19.666 -17 -30.999s-6 -23 -6 -35v-293h-124v680h124v-241c15.333 19.333 32.666 34.333 51.999 45s41.666 16 66.999 16z" />
    <glyph glyph-name=".notdef" horiz-adv-x="218" 
 />
    <glyph glyph-name="space" unicode=" " horiz-adv-x="218" 
 />
    <glyph glyph-name="exclam" unicode="!" horiz-adv-x="245" 
d="M183 239h-106l-15 441h137zM72 135h121v-135h-121v135z" />
    <glyph glyph-name="quotedbl" unicode="&#x22;" horiz-adv-x="306" 
d="M44 677h93l-8 -221h-77zM171 677h91l-7 -221h-76z" />
    <glyph glyph-name="numbersign" unicode="#" horiz-adv-x="534" 
d="M335 470l20 125h77l-18 -125h83v-72h-93l-33 -210h89v-72h-101l-16 -116h-80l16 116h-71l-16 -116h-79l16 116h-92v72h103l34 210h-100v72h110l19 125h81l-19 -125h70zM291 188l33 210h-71l-34 -210h72z" />
    <glyph glyph-name="dollar" unicode="$" horiz-adv-x="489" 
d="M450 306l-0.00292969 -118.999c0 -47.333 -13.167 -88.333 -39.5 -123s-63.5 -56.334 -111.5 -65.001v-117h-99v118c-17.333 1.33301 -34.666 5.5 -51.999 12.5s-33.166 16.333 -47.499 28s-27 25 -38 40s-19.167 30.833 -24.5 47.5l81 69c8 -16 15.833 -29.5 23.5 -40.5
s16.334 -20 26.001 -27s20.667 -12 33 -15s27.5 -4.5 45.5 -4.5c27.333 0 47.333 8 60 24s19 37.667 19 65v38l-271 148v121c0 48 13.333 87.167 40 117.5s65 49.166 115 56.499v120h99v-123c14 -1.33301 28.333 -5.5 43 -12.5s28.5 -15.667 41.5 -26
s24.833 -21.666 35.5 -33.999s19 -24.5 25 -36.5l-79 -74c-17.333 25.333 -34.5 44.333 -51.5 57s-37.833 19 -62.5 19c-26 0 -46.333 -5 -61 -15s-22 -27.667 -22 -53v-46z" />
    <glyph glyph-name="percent" unicode="%" horiz-adv-x="658" 
d="M306 500c0 -39.333 -11.167 -66.833 -33.5 -82.5s-52.833 -23.5 -91.5 -23.5c-36.667 0 -67.5 8.5 -92.5 25.5s-37.5 43.833 -37.5 80.5v85c0 36 12.333 62.5 37 79.5s55.667 25.5 93 25.5c36 0 65.833 -8.5 89.5 -25.5s35.5 -43.5 35.5 -79.5v-85zM607 96
c0 -39.333 -11.667 -67.001 -35 -83.001s-54.333 -24 -93 -24c-38 0 -69.5 8.66699 -94.5 26s-37.5 45.333 -37.5 84v78c0 18 3.33301 33.667 10 47s16 24.5 28 33.5s26 15.667 42 20s33.333 6.5 52 6.5c36.667 0 67.167 -9.16699 91.5 -27.5s36.5 -45.166 36.5 -80.499v-80
zM154 518.999c0 -8.66699 2.33203 -15.999 6.99902 -21.999s11.334 -9 20.001 -9c7.33301 0 13 2.66699 17 8s6 11.666 6 18.999v55c0 6 -2.33301 11.667 -7 17s-10 8 -16 8c-8 0 -14.5 -2.33301 -19.5 -7s-7.5 -10.667 -7.5 -18v-51zM454.999 115
c0 -9.33301 1.66699 -16.833 5 -22.5s9.66602 -8.5 18.999 -8.5c7.33301 0 13 2.66699 17 8s6 11.666 6 18.999v55c0 5.33301 -2.33301 10.5 -7 15.5s-10 7.5 -16 7.5c-7.33301 0 -13.166 -2.16699 -17.499 -6.5s-6.5 -10.166 -6.5 -17.499v-50zM65.999 0l400 680h99
l-395 -680h-104z" />
    <glyph glyph-name="ampersand" unicode="&#x26;" horiz-adv-x="607" 
d="M559 304l-83.001 -113.001l109 -126l-87 -82l-94 109c-24 -30 -48.667 -53.5 -74 -70.5s-56.666 -25.5 -93.999 -25.5c-61.333 0 -109.833 14.167 -145.5 42.5s-53.5 72.833 -53.5 133.5c0 22.667 4.5 43.667 13.5 63s20.167 37.5 33.5 54.5s28 33 44 48l46 43.5l-73 83
v97c0 42 14.5 74 43.5 96s65.5 33 109.5 33c50 0 88.5 -13.333 115.5 -40s40.5 -64.667 40.5 -114c0 -18.667 -2 -35.167 -6 -49.5s-9.5 -27.666 -16.5 -39.999s-15.333 -24.5 -25 -36.5l-32.5 -39l72 -93l75 97zM236.999 110.999c9.33301 0 18.667 2.33398 28 7.00098
s18.166 10.834 26.499 18.501s15.833 16 22.5 25s12.334 17.833 17.001 26.5l-85 112c-8 -6.66699 -16.667 -15 -26 -25s-17.833 -20.5 -25.5 -31.5s-14.167 -22.167 -19.5 -33.5s-8 -22.333 -8 -33c0 -14.667 1.33301 -26.334 4 -35.001s7 -15.334 13 -20.001
s13.333 -7.66699 22 -9s19 -2 31 -2zM220 496l39 -48c11.333 12 21 24.5 29 37.5s12 28.833 12 47.5c0 15.333 -3.16699 28.666 -9.5 39.999s-17.166 17 -32.499 17c-12.667 0 -21.834 -2.16699 -27.501 -6.5s-8.5 -12.166 -8.5 -23.499z" />
    <glyph glyph-name="quotesingle" unicode="'" horiz-adv-x="236" 
d="M58 700h120l-13 -243h-94z" />
    <glyph glyph-name="parenleft" unicode="(" horiz-adv-x="327" 
d="M70 417c0 37.333 2.83203 73.502 8.49902 108.502s14.834 67.833 27.501 98.5s29.334 58.667 50.001 84s46 46.666 76 63.999l35 -53c-12.667 -8 -24.834 -20.5 -36.501 -37.5s-22 -38.333 -31 -64s-16.167 -55.167 -21.5 -88.5s-8 -70.666 -8 -111.999v-289
c0 -66.667 8 -126.334 24 -179.001s40.333 -93.334 73 -122.001l-35 -53c-24 16.667 -45.833 36.167 -65.5 58.5s-36.667 47.833 -51 76.5s-25.5 61.167 -33.5 97.5s-12 76.833 -12 121.5v289z" />
    <glyph glyph-name="parenright" unicode=")" horiz-adv-x="352" 
d="M257 128c0 -44.667 -4.00195 -85.167 -12.002 -121.5s-19.167 -69 -33.5 -98s-31.333 -54.667 -51 -77s-41.5 -41.833 -65.5 -58.5l-35 44c32.667 28 57 69.667 73 125s24 117.333 24 186v289c0 41.333 -2.83301 79.5 -8.5 114.5s-13.167 66 -22.5 93s-20 49.667 -32 68
s-24.333 31.166 -37 38.499l38 41c30 -17.333 55.333 -38.666 76 -63.999s37.334 -53.333 50.001 -84s21.834 -63.5 27.501 -98.5s8.5 -71.167 8.5 -108.5v-289z" />
    <glyph glyph-name="asterisk" unicode="*" horiz-adv-x="351" 
d="M287 641l27 -72l-83 -34l58 -91l-65 -40l-48 79l-49 -79l-65 42l57 89l-82 34l26 73l73 -36v98h78v-98z" />
    <glyph glyph-name="plus" unicode="+" horiz-adv-x="491" 
d="M308 453h160v-110h-160v-200h-124v200h-161v110h161v180h124v-180z" />
    <glyph glyph-name="comma" unicode="," horiz-adv-x="220" 
d="M160 99v-27c0 -27.333 -2.66699 -52 -8 -74s-12.333 -41.667 -21 -59s-18.5 -32.5 -29.5 -45.5s-21.833 -23.833 -32.5 -32.5l-51 36c11.333 14 20.5 31.167 27.5 51.5s10.5 44.833 10.5 73.5v77h104z" />
    <glyph glyph-name="hyphen" unicode="-" horiz-adv-x="311" 
d="M37 352h237v-110h-237v110z" />
    <glyph glyph-name="period" unicode="." horiz-adv-x="230" 
d="M51 135h128v-135h-128v135z" />
    <glyph glyph-name="slash" unicode="/" horiz-adv-x="354" 
d="M16 -85l220 765h107l-222 -765h-105z" />
    <glyph glyph-name="zero" unicode="0" horiz-adv-x="538" 
d="M268 690c66.667 0 118.666 -17.833 155.999 -53.5s56 -86.5 56 -152.5v-292c0 -32.667 -5 -61.5 -15 -86.5s-24.333 -46 -43 -63s-41 -30 -67 -39s-55 -13.5 -87 -13.5c-66 0 -117.5 16.667 -154.5 50s-55.5 83 -55.5 149v295c0 66 18.333 116.833 55 152.5
s88.334 53.5 155.001 53.5zM355.999 484c0 31.333 -6.66699 55.167 -20 71.5s-36 24.5 -68 24.5c-30.667 0 -52.667 -8.5 -66 -25.5s-20 -40.5 -20 -70.5v-295c0 -30 6.83301 -52.333 20.5 -67s35.5 -22 65.5 -22c30.667 0 53 7.66699 67 23s21 38.333 21 69v292z" />
    <glyph glyph-name="one" unicode="1" horiz-adv-x="406" 
d="M182 570h-122v110h246v-680h-124v570z" />
    <glyph glyph-name="two" unicode="2" horiz-adv-x="481" 
d="M333 308c-15.333 -14 -31.5049 -27.6748 -48.5049 -41.0078s-32.5 -27.5 -46.5 -42.5s-25.833 -31.667 -35.5 -50s-14.5 -39.833 -14.5 -64.5h260v-110h-384v63c0 34.667 2.16699 64.834 6.5 90.501s11.833 49.167 22.5 70.5s25 42 43 62s40.667 41.333 68 64
c18 14.667 34.167 27.334 48.5 38.001s26.333 21.334 36 32.001s17.167 22.334 22.5 35.001s8 28.334 8 47.001c0 30 -7.5 51 -22.5 63s-36.5 18 -64.5 18c-12 0 -23.5 -2.83301 -34.5 -8.5s-21.167 -12.5 -30.5 -20.5s-17.666 -16.5 -24.999 -25.5
s-13.333 -17.167 -18 -24.5l-80 79c20.667 33.333 48.834 60 84.501 80s77.167 30 124.5 30c62 0 109.167 -15.333 141.5 -46s48.5 -71 48.5 -121c0 -24 -1.66699 -45.167 -5 -63.5s-9.16602 -35.666 -17.499 -51.999s-19.666 -32.666 -33.999 -48.999
s-32.166 -34.166 -53.499 -53.499z" />
    <glyph glyph-name="three" unicode="3" horiz-adv-x="500" 
d="M444 456c0 -24.667 -8.66797 -45.5039 -26.001 -62.5039s-37 -31.167 -59 -42.5c11.333 -6 22.333 -12.667 33 -20s20.334 -15.666 29.001 -24.999s15.5 -19.166 20.5 -29.499s7.5 -21.5 7.5 -33.5v-90c0 -28 -5.16699 -52.167 -15.5 -72.5s-24.5 -37.166 -42.5 -50.499
s-39.167 -23.333 -63.5 -30s-50.5 -10 -78.5 -10c-24.667 0 -47.834 2.83301 -69.501 8.5s-41.5 14.167 -59.5 25.5s-33.5 25.666 -46.5 42.999s-22.833 38 -29.5 62l99 44c3.33301 -9.33301 8.33301 -18.333 15 -27s14.5 -16.5 23.5 -23.5s18.667 -12.5 29 -16.5
s20.5 -6 30.5 -6c11.333 0 22 0.666992 32 2s18.833 3.83301 26.5 7.5s13.834 9 18.501 16s7 16.167 7 27.5v90c0 10.667 -2.33301 19.167 -7 25.5s-11 11.5 -19 15.5s-17 7 -27 9s-20.333 3.66699 -31 5h-74v106h70c10.667 0 21 0.666992 31 2s18.833 3.83301 26.5 7.5
s13.834 9 18.501 16s7 15.833 7 26.5v71c0 22 -7.83301 36.333 -23.5 43s-34.5 10 -56.5 10c-21.333 0 -40.833 -6.83301 -58.5 -20.5s-29.834 -29.834 -36.501 -48.501l-90 53c6 20.667 15.5 38.834 28.5 54.501s28.167 28.834 45.5 39.501s36 18.667 56 24s40.333 8 61 8
c28 0 54 -3.16699 78 -9.5s45 -16.166 63 -29.499s32 -30.333 42 -51s15 -45 15 -73v-71z" />
    <glyph glyph-name="four" unicode="4" horiz-adv-x="503" 
d="M395 293h89v-110h-89v-183h-124v183h-242v82l182 415h184v-387zM271 571h-5l-100 -278h105v278z" />
    <glyph glyph-name="five" unicode="5" horiz-adv-x="489" 
d="M251 427c58.667 0 105.169 -14.998 139.502 -44.998s51.5 -73.667 51.5 -131v-88c0 -28.667 -5 -53.834 -15 -75.501s-24 -39.834 -42 -54.501s-39.167 -25.5 -63.5 -32.5s-50.833 -10.5 -79.5 -10.5c-22 0 -43.833 3.16699 -65.5 9.5s-41.334 16 -59.001 29
s-32.834 29.333 -45.501 49s-21 42.834 -25 69.501l118 36c2 -4.66699 4.5 -11.667 7.5 -21s7.83301 -18.5 14.5 -27.5s15.5 -17 26.5 -24s25.167 -10.5 42.5 -10.5c24 0 40.833 4.5 50.5 13.5s14.5 25.5 14.5 49.5v88c0 23.333 -7 40.166 -21 50.499s-33.333 15.5 -58 15.5
h-174l30 363h313v-110h-202l-10 -143h52z" />
    <glyph glyph-name="six" unicode="6" horiz-adv-x="503" 
d="M283 452c56 0 98.165 -12.502 126.498 -37.502s42.5 -67.833 42.5 -128.5v-121c0 -28.667 -5 -53.667 -15 -75s-23.833 -39.166 -41.5 -53.499s-38.667 -25 -63 -32s-50.833 -10.5 -79.5 -10.5s-54.834 3.5 -78.501 10.5s-44.167 17.667 -61.5 32
s-30.833 32.166 -40.5 53.499s-14.5 46.333 -14.5 75v365c0 26.667 5.16699 49.834 15.5 69.501s24.333 36 42 49s38.334 22.667 62.001 29s48.834 9.5 75.501 9.5c18 0 34 -1.16699 48 -3.5s27 -6.33301 39 -12s23.833 -13 35.5 -22s23.834 -20.5 36.501 -34.5l-69 -84
c-10 12.667 -23.167 23.834 -39.5 33.501s-33.166 14.5 -50.499 14.5c-20.667 0 -38.334 -2.83301 -53.001 -8.5s-22 -19.167 -22 -40.5v-126c17.333 18 34.5 30.5 51.5 37.5s34.833 10.5 53.5 10.5zM329.998 268.998c0 23.333 -5.16699 39.833 -15.5 49.5
s-27.166 14.5 -50.499 14.5s-43.5 -7.16699 -60.5 -21.5s-25.5 -32.833 -25.5 -55.5v-91c0 -23.333 6.66699 -39.5 20 -48.5s31.666 -13.5 54.999 -13.5s42 4.33301 56 13s21 25 21 49v104z" />
    <glyph glyph-name="seven" unicode="7" horiz-adv-x="419" 
d="M5 680h395l-192 -680h-129l164 570h-238v110z" />
    <glyph glyph-name="eight" unicode="8" horiz-adv-x="508" 
d="M440 470c0 -10.667 -2.49805 -21.999 -7.49805 -33.999s-11.333 -23.333 -19 -34s-16.167 -20.334 -25.5 -29.001s-18.666 -15.334 -27.999 -20.001c11.333 -4.66699 22.5 -11.5 33.5 -20.5s20.667 -19 29 -30s15 -22.667 20 -35s7.5 -24.5 7.5 -36.5v-82
c0 -26.667 -5.33301 -49.834 -16 -69.501s-25 -36.167 -43 -49.5s-38.833 -23.333 -62.5 -30s-48.834 -10 -75.501 -10c-30 0 -57.167 2.83301 -81.5 8.5s-44.833 14.834 -61.5 27.501s-29.5 29.5 -38.5 50.5s-13.5 46.5 -13.5 76.5v77c0 12 2.5 24.333 7.5 37
s11.667 24.5 20 35.5s18 20.833 29 29.5s22.167 15.667 33.5 21c-24.667 12 -44.334 28.167 -59.001 48.5s-22 44.5 -22 72.5v65c0 23.333 5.16699 44 15.5 62s24.166 33 41.499 45s37.166 21.167 59.499 27.5s45.5 9.5 69.5 9.5c28 0 53.333 -3.16699 76 -9.5
s42.334 -16.166 59.001 -29.499s29.5 -30 38.5 -50s13.5 -44 13.5 -72v-52v0zM329.002 198.001c0 27.333 -4.83203 50.332 -14.499 68.999s-28.167 28 -55.5 28h-10c-28.667 -1.33301 -47.667 -10.5 -57 -27.5s-14 -39.833 -14 -68.5v-42
c0 -23.333 6.66699 -38.666 20 -45.999s31.666 -11 54.999 -11c21.333 0 39.333 3.16699 54 9.5s22 20.833 22 43.5v45zM189.003 470c0 -20 5.5 -36 16.5 -48s26.5 -17.667 46.5 -17h6c21.333 0.666992 37 6 47 16s15 26.333 15 49v52c0 19.333 -6.33301 32.833 -19 40.5
s-28.667 11.5 -48 11.5c-20 0 -35.667 -3.83301 -47 -11.5s-17 -21.167 -17 -40.5v-52v0z" />
    <glyph glyph-name="nine" unicode="9" horiz-adv-x="504" 
d="M247 687c28.667 0 55.168 -3.5 79.501 -10.5s45.333 -17.5 63 -31.5s31.5 -31.667 41.5 -53s15 -46.333 15 -75v-352c0 -28.667 -5 -53.667 -15 -75s-23.833 -39.166 -41.5 -53.499s-38.667 -25 -63 -32s-50.833 -10.5 -79.5 -10.5c-34.667 0 -68 6.33301 -100 19
s-59.667 31.667 -83 57l68 92c15.333 -14.667 33 -28.667 53 -42s40.333 -20 61 -20c23.333 0 42 5 56 15s21 26.667 21 50v100c-12.667 -11.333 -29 -19.833 -49 -25.5s-38.333 -8.5 -55 -8.5c-58.667 0 -101.334 14 -128.001 42s-40 71.333 -40 130v114
c0 28 4.83301 52.667 14.5 74s23.167 39.166 40.5 53.499s38 25 62 32s50.333 10.5 79 10.5zM323.001 517c0 23.333 -6.83301 39.666 -20.5 48.999s-32.167 14 -55.5 14s-41.666 -4.66699 -54.999 -14s-20 -25.666 -20 -48.999v-114c0 -23.333 6.66699 -39.5 20 -48.5
s31.666 -13.5 54.999 -13.5s41.833 6.5 55.5 19.5s20.5 31.5 20.5 55.5v101z" />
    <glyph glyph-name="colon" unicode=":" horiz-adv-x="266" 
d="M77 144h124v-144h-124v144zM77 490h124v-142h-124v142z" />
    <glyph glyph-name="semicolon" unicode=";" horiz-adv-x="295" 
d="M210 356h-99v134h99v-134zM210 99v-27c0 -27.333 -2.66699 -52 -8 -74s-12.333 -41.667 -21 -59s-18.5 -32.5 -29.5 -45.5s-21.833 -23.833 -32.5 -32.5l-51 36c11.333 14 20.5 31.167 27.5 51.5s10.5 44.833 10.5 73.5v77h104z" />
    <glyph glyph-name="less" unicode="&#x3c;" horiz-adv-x="516" 
d="M428 -15l-391 258l393 291l42 -67l-279 -218l286 -192z" />
    <glyph glyph-name="equal" unicode="=" horiz-adv-x="510" 
d="M37 490h436v-92h-436v92zM37 284h436v-93h-436v93z" />
    <glyph glyph-name="greater" unicode="&#x3e;" horiz-adv-x="516" 
d="M479 262l-394 -291l-40 82l282 200l-290 192l42 80z" />
    <glyph glyph-name="question" unicode="?" horiz-adv-x="397" 
d="M203 690c52 0 91.166 -9.3291 117.499 -27.9961s39.5 -53 39.5 -103v-49c0 -17.333 -2.33301 -33.333 -7 -48s-12.667 -28.667 -24 -42l-33.5 -38c-10.333 -12 -19.333 -24 -27 -36s-13.5 -24.667 -17.5 -38s-6 -28 -6 -44v-35h-116v87c0 11.333 1 21.166 3 29.499
s5.16699 16.666 9.5 24.999s10 17 17 26s15.833 19.167 26.5 30.5c4 5.33301 9 11.166 15 17.499s11.833 13 17.5 20s10.667 14.167 15 21.5s6.5 14.333 6.5 21v31c0 17.333 -3.33301 28.666 -10 33.999s-18.667 8 -36 8c-20.667 0 -40.667 -5.83301 -60 -17.5
s-35.666 -24.167 -48.999 -37.5l-65 73c20.667 26.667 47.5 48.667 80.5 66s67.5 26 103.5 26zM124.999 135.004h134v-135h-134v135z" />
    <glyph glyph-name="at" unicode="@" horiz-adv-x="679" 
d="M346 705c50.667 0 94.5078 -6.00879 131.508 -18.0088s67.5 -28.833 91.5 -50.5s41.833 -47.667 53.5 -78s17.5 -63.833 17.5 -100.5c0 -95.333 -11.833 -166.833 -35.5 -214.5s-63.167 -71.5 -118.5 -71.5c-32 0 -57.5 6.83301 -76.5 20.5s-27.833 32.167 -26.5 55.5
c-13.333 -25.333 -28.333 -46.333 -45 -63s-36.667 -25 -60 -25s-42 2.66699 -56 8s-24.833 12.333 -32.5 21s-12.834 18.834 -15.501 30.501s-4.66699 23.834 -6 36.501c0 34 3.33301 65.333 10 94s11 56 13 82c3.33301 26 11.5 47.333 24.5 64s28 29.834 45 39.501
s35 16.334 54 20.001s36.5 5.5 52.5 5.5c44.667 0 76.5 -8.16699 95.5 -24.5s28.5 -39.833 28.5 -70.5c0 -13.333 -0.833008 -27.166 -2.5 -41.499s-4.16699 -28.5 -7.5 -42.5l-11.5 -46.5c-3.66699 -15 -5.5 -29.5 -5.5 -43.5c0 -15.333 2.16699 -26.666 6.5 -33.999
s9.5 -11 15.5 -11c12 0 22.167 3 30.5 9s15.166 16.5 20.499 31.5s9.16602 35.833 11.499 62.5s3.5 60.334 3.5 101.001c0 33.333 -5.5 61.5 -16.5 84.5s-25.833 41.667 -44.5 56s-40.5 24.666 -65.5 30.999s-51.5 9.5 -79.5 9.5c-36.667 0 -67.667 -6.5 -93 -19.5
s-46.333 -30.5 -63 -52.5s-29.334 -47.5 -38.001 -76.5s-14.667 -59.5 -18 -91.5c-2.66699 -34 -4.5 -59.5 -5.5 -76.5s-1.83301 -29.167 -2.5 -36.5s-1 -11.333 -1 -12v-2c0 -34 6.33301 -63.167 19 -87.5s29.334 -44.5 50.001 -60.5s44.167 -27.833 70.5 -35.5
s52.833 -11.5 79.5 -11.5c24 0 46.333 4.16699 67 12.5s44.667 21.5 72 39.5l36 -71c-17.333 -12 -33.5 -21.667 -48.5 -29s-29.333 -13 -43 -17s-27.334 -6.66699 -41.001 -8s-27.834 -2 -42.501 -2c-47.333 0 -89.833 7 -127.5 21s-69.667 33 -96 57
s-46.5 52.333 -60.5 85s-21.667 67.334 -23 104.001v4c0 1.33301 0.333008 6 1 14s1.66699 20.833 3 38.5s3 43.834 5 78.501c3.33301 52 13.166 97.167 29.499 135.5s37.666 70.333 63.999 96s57.166 44.834 92.499 57.501s73.333 19 114 19zM300.008 239.991
c23.333 0 40.332 8 50.999 24s18.334 35.833 23.001 59.5s7.5 49.167 8.5 76.5s3.5 52.333 7.5 75c-1.33301 -3.33301 -2.66602 -7 -3.99902 -11s-2 -7.66699 -2 -11c-1.33301 12.667 -4.33301 20.5 -9 23.5s-11.667 4.5 -21 4.5c-12 0 -22 -2.66699 -30 -8
s-14.667 -12.666 -20 -21.999s-9.5 -19.833 -12.5 -31.5s-5.83301 -24.167 -8.5 -37.5c-2.66699 -16 -4.5 -32.167 -5.5 -48.5s-2.5 -35.5 -4.5 -57.5c1.33301 -14.667 4.16602 -24.334 8.49902 -29.001s10.5 -7 18.5 -7z" />
    <glyph glyph-name="A" unicode="A" horiz-adv-x="549" 
d="M353 682l177 -682h-126l-39 161h-179l-40 -161h-127l182 682h152zM339 261l-63 295l-64 -295h127z" />
    <glyph glyph-name="B" unicode="B" horiz-adv-x="511" 
d="M448 477c0 -28.667 -5.33301 -54.1689 -16 -76.502s-28.667 -37.833 -54 -46.5c12.667 -4.66699 24.5 -11.667 35.5 -21s20.5 -20.166 28.5 -32.499s14.167 -25.666 18.5 -39.999s6.5 -28.833 6.5 -43.5v-47c0 -25.333 -3.83301 -48.333 -11.5 -69
s-18.667 -38.5 -33 -53.5s-31.5 -26.667 -51.5 -35s-42.333 -12.5 -67 -12.5h-240v680h222c50 0 89.5 -14 118.5 -42s43.5 -67 43.5 -117v-44v0zM343 222.998c0 23.333 -7.83203 41.501 -23.499 54.501s-35.167 19.5 -58.5 19.5h-73v-187h86
c23.333 0 40.666 4.16699 51.999 12.5s17 24.166 17 47.499v53zM188.001 396.999h68c23.333 0 40.333 5.33301 51 16s16 27.667 16 51v44c0 23.333 -5.33301 39.5 -16 48.5s-27.667 13.5 -51 13.5h-68v-173z" />
    <glyph glyph-name="C" unicode="C" horiz-adv-x="497" 
d="M268 580c-31.333 0 -55.833 -8.5 -73.5 -25.5s-26.5 -41.167 -26.5 -72.5v-284c0 -65.333 33.667 -98 101 -98c15.333 0 28.666 1.5 39.999 4.5s21.5 7.16699 30.5 12.5s17.5 11.833 25.5 19.5l27 25.5l73 -87c-28 -29.333 -57.667 -50.833 -89 -64.5
s-67 -20.5 -107 -20.5c-68 0 -122.5 17.5 -163.5 52.5s-61.5 86.833 -61.5 155.5v284c0 32 5.5 60.833 16.5 86.5s26.5 47.5 46.5 65.5s43.667 31.833 71 41.5s57.333 14.5 90 14.5c24 0 45.5 -1.66699 64.5 -5s36.5 -9 52.5 -17s30.833 -18.333 44.5 -31s26.5 -28 38.5 -46
l-79 -77c-9.33301 15.333 -24.166 30 -44.499 44s-45.833 21.333 -76.5 22z" />
    <glyph glyph-name="D" unicode="D" horiz-adv-x="530" 
d="M261 680c70 0 125 -17 165 -51s60 -86 60 -156v-266c0 -73.333 -20.5 -126.333 -61.5 -159s-98.167 -49 -171.5 -49h-188v681h196zM365 473c0 34 -8.83301 58.667 -26.5 74s-43.5 23 -77.5 23h-75v-461h67c33.333 0 60.333 7.83301 81 23.5s31 40.5 31 74.5v266z" />
    <glyph glyph-name="E" unicode="E" horiz-adv-x="454" 
d="M185 292v-182h232v-110h-352v680h335v-110h-215v-173h181v-105h-181z" />
    <glyph glyph-name="F" unicode="F" horiz-adv-x="422" 
d="M399 570h-214v-171h180v-105h-180v-294h-120v680h334v-110z" />
    <glyph glyph-name="G" unicode="G" horiz-adv-x="545" 
d="M264 376h230.001v-300c-32 -28 -66 -49.333 -102 -64s-74.667 -22 -116 -22c-33.333 0 -64.166 4.5 -92.499 13.5s-52.833 22.333 -73.5 40s-36.834 39.5 -48.501 65.5s-17.5 55.667 -17.5 89v284c0 32 6 60.833 18 86.5s28.5 47.5 49.5 65.5s45.667 31.833 74 41.5
s58.5 14.5 90.5 14.5c47.333 0 87.5 -8.33301 120.5 -25s61.5 -41 85.5 -73l-77 -85c-16.667 19.333 -36.167 36.333 -58.5 51s-45.833 22 -70.5 22c-31.333 0 -57.666 -8.66699 -78.999 -26s-32 -41.333 -32 -72v-284c0 -33.333 10.167 -58 30.5 -74s47.166 -24 80.499 -24
c19.333 0 36.166 1.66699 50.499 5s29.5 11.333 45.5 24v147h-108v100z" />
    <glyph glyph-name="H" unicode="H" horiz-adv-x="616" 
d="M429 680h122v-680h-122v275h-214v-275h-120v680h120v-295h214v295z" />
    <glyph glyph-name="I" unicode="I" horiz-adv-x="325" 
d="M100 680h124v-680h-124v680z" />
    <glyph glyph-name="J" unicode="J" horiz-adv-x="441" 
d="M252 680h124v-534c0 -25.333 -4.83301 -47.833 -14.5 -67.5s-23 -36.167 -40 -49.5s-36.833 -23.333 -59.5 -30s-46.667 -10 -72 -10c-48 0 -86.667 11.667 -116 35s-48.666 59 -57.999 107l107 40c3.33301 -12 6.66602 -22.5 9.99902 -31.5s7.5 -16.5 12.5 -22.5
s11.167 -10.333 18.5 -13s16.333 -4 27 -4c18.667 0 33.5 3 44.5 9s16.5 18.333 16.5 37v534z" />
    <glyph glyph-name="K" unicode="K" horiz-adv-x="558" 
d="M533 680l-243 -311l262 -369h-155l-186 269l-22 -36v-233h-124v680h124v-256l196 256h148z" />
    <glyph glyph-name="L" unicode="L" 
d="M185 680v-570h252v-110h-372v680h120z" />
    <glyph glyph-name="M" unicode="M" horiz-adv-x="698" 
d="M221 680l127 -345l130 345h155v-680h-110v541l-139 -415h-64l-145 414v-540h-110v680h156z" />
    <glyph glyph-name="N" unicode="N" horiz-adv-x="611" 
d="M436 680h110v-680h-196l-175 541v-541h-110v680h178l193 -551v551z" />
    <glyph glyph-name="O" unicode="O" horiz-adv-x="571" 
d="M292 690c32.667 0 63.166 -4.66699 91.499 -14s53 -22.833 74 -40.5s37.667 -39.334 50 -65.001s18.5 -54.834 18.5 -87.501v-285c0 -34 -6 -63.833 -18 -89.5s-28.5 -47.334 -49.5 -65.001s-45.667 -31 -74 -40s-59.166 -13.5 -92.499 -13.5h-13
c-34 0 -65.333 4.33301 -94 13s-53.5 21.834 -74.5 39.501s-37.333 39.5 -49 65.5s-17.5 56 -17.5 90v285c0 32 6.16699 60.833 18.5 86.5s29 47.334 50 65.001s45.667 31.334 74 41.001s58.833 14.5 91.5 14.5h14v0zM401.999 482c0 31.333 -10.499 55.5 -31.499 72.5
s-47.167 25.5 -78.5 25.5h-14c-31.333 0 -57.5 -8.33301 -78.5 -25s-31.5 -40.667 -31.5 -72v-285c0 -34 10.167 -58.833 30.5 -74.5s47.166 -23.5 80.499 -23.5h13c34 0 60.833 7.83301 80.5 23.5s29.5 40.5 29.5 74.5v284z" />
    <glyph glyph-name="P" unicode="P" horiz-adv-x="483" 
d="M264 680c56.667 0 101.332 -13.833 133.999 -41.5s49 -70.167 49 -127.5v-103c0 -26 -4.66699 -49 -14 -69s-22.166 -36.5 -38.499 -49.5s-35.5 -22.833 -57.5 -29.5s-45.667 -10 -71 -10h-78v-250h-124v680h200zM322.998 510c0 21.333 -4.5 36.667 -13.5 46
s-24.167 14 -45.5 14h-76v-210h76c18.667 0 33.167 3.33301 43.5 10s15.5 19.667 15.5 39v101z" />
    <glyph glyph-name="Q" unicode="Q" horiz-adv-x="559" 
d="M376 1c-13.333 -4 -26.8311 -6.83398 -40.498 -8.50098s-28.167 -2.5 -43.5 -2.5h-13c-34 0 -65.333 4.33301 -94 13s-53.5 21.834 -74.5 39.501s-37.333 39.5 -49 65.5s-17.5 56 -17.5 90v285c0 32 6.16699 60.833 18.5 86.5s29 47.334 50 65.001
s45.667 31.334 74 41.001s58.833 14.5 91.5 14.5h14c32.667 0 63.167 -4.66699 91.5 -14s53 -22.833 74 -40.5s37.667 -39.334 50 -65.001s18.5 -54.834 18.5 -87.501v-285c0 -34 -6.33301 -64.167 -19 -90.5s-29.667 -48.5 -51 -66.5l5 -6
c11.333 -16.667 26 -27.334 44 -32.001s37 -7 57 -7v-75c-20.667 0 -39.334 0.166992 -56.001 0.5s-31.834 2.33301 -45.501 6s-26 9.33398 -37 17.001s-21.5 19.167 -31.5 34.5zM402.002 481.999c0 31.333 -10.5 55.499 -31.5 72.499s-47.167 25.5 -78.5 25.5h-14
c-31.333 0 -57.5 -8.33301 -78.5 -25s-31.5 -40.667 -31.5 -72v-285c0 -34 10.167 -58.833 30.5 -74.5s47.166 -23.5 80.499 -23.5h13h8c2.66699 0 5.33398 0.333008 8.00098 1l-70 101l73 50l77 -110c9.33301 14.667 14 33.334 14 56.001v284z" />
    <glyph glyph-name="R" unicode="R" horiz-adv-x="518" 
d="M475 441c0 -39.333 -9.5 -71 -28.5 -95s-46.167 -43 -81.5 -57l133 -289h-126l-127 276h-57v-276h-124v680h228c60 0 105.5 -14 136.5 -42s46.5 -72 46.5 -132v-65v0zM188 386l103.999 0.000976562c18 0 32.333 4.5 43 13.5s16 23.167 16 42.5v65
c0 21.333 -4.66699 37.166 -14 47.499s-24.666 15.5 -45.999 15.5h-103v-184z" />
    <glyph glyph-name="S" unicode="S" horiz-adv-x="503" 
d="M355 376l48.9961 -34.001c14.667 -10.667 27.167 -23 37.5 -37s18.5 -31 24.5 -51s9 -45.667 9 -77c0 -30 -5.5 -56.5 -16.5 -79.5s-26 -42.333 -45 -58s-41.167 -27.5 -66.5 -35.5s-52.666 -12 -81.999 -12c-49.333 0 -93.666 9.33301 -132.999 28
s-70.666 51 -93.999 97l94 74c14 -28.667 30.5 -50.667 49.5 -66s44.833 -23 77.5 -23c29.333 0 52 5.16699 68 15.5s24 30.5 24 60.5c0 16 -5.5 30.167 -16.5 42.5s-24.5 23.833 -40.5 34.5s-33.167 20.5 -51.5 29.5s-34.833 17.833 -49.5 26.5l-44 30.5
c-15.333 11 -29.5 24.333 -42.5 40s-23.833 33.834 -32.5 54.501s-13 45 -13 73c0 30.667 5.33301 57.334 16 80.001s25.334 41.5 44.001 56.5s41.167 26.167 67.5 33.5s54.833 11 85.5 11c15.333 0 31.333 -2 48 -6s33.167 -9.83301 49.5 -17.5s32 -17.167 47 -28.5
s28.5 -24 40.5 -38l-71 -92c-6.66699 8 -15 16.167 -25 24.5s-20.667 16 -32 23s-23 12.833 -35 17.5s-23.667 7 -35 7c-25.333 0 -44.333 -5 -57 -15s-19 -27.667 -19 -53c0 -15.333 7 -29.833 21 -43.5s30.5 -26.334 49.5 -38.001s38 -22 57 -31
s33.167 -16.833 42.5 -23.5z" />
    <glyph glyph-name="T" unicode="T" horiz-adv-x="475" 
d="M9 570v110h457v-110h-167v-570h-124v570h-166z" />
    <glyph glyph-name="U" unicode="U" horiz-adv-x="604" 
d="M415 680h124.002v-475c0 -35.333 -5.83301 -66.333 -17.5 -93s-27.834 -49 -48.501 -67s-45.5 -31.667 -74.5 -41s-61.167 -14 -96.5 -14s-67.5 4.5 -96.5 13.5s-54 22.5 -75 40.5s-37.167 40.5 -48.5 67.5s-17 58.167 -17 93.5v475h124v-475
c0 -36 9.83301 -62.5 29.5 -79.5s47.167 -25.5 82.5 -25.5s63.166 8.5 83.499 25.5s30.5 43.5 30.5 79.5v475z" />
    <glyph glyph-name="V" unicode="V" horiz-adv-x="551" 
d="M140 680l133 -503l136 503h126l-190 -680h-144l-185 680h124z" />
    <glyph glyph-name="W" unicode="W" horiz-adv-x="755" 
d="M440 680l97 -458l69 458h126l-123 -680h-134l-96 439l-94 -439h-135l-134 680h124l84 -457l94 457h122z" />
    <glyph glyph-name="X" unicode="X" horiz-adv-x="582" 
d="M179 680l117 -227l121 227h138l-191 -342l190 -338h-138l-121 223l-125 -223h-138l194 338l-184 342h137z" />
    <glyph glyph-name="Y" unicode="Y" horiz-adv-x="556" 
d="M211 269l-195 411h134l123 -285l126 285h134l-198 -412v-268h-124v269z" />
    <glyph glyph-name="Z" unicode="Z" horiz-adv-x="506" 
d="M469 680v-54l-273 -516h269v-110h-428v57l273 513h-269v110h428z" />
    <glyph glyph-name="bracketleft" unicode="[" horiz-adv-x="266" 
d="M229 680v-86h-58v-667h54v-84h-160v837h164z" />
    <glyph glyph-name="backslash" unicode="\" horiz-adv-x="388" 
d="M23 680h108l234 -680h-107z" />
    <glyph glyph-name="bracketright" unicode="]" horiz-adv-x="264" 
d="M199 680v-837h-161v87h54v657h-54v93h161z" />
    <glyph glyph-name="asciicircum" unicode="^" horiz-adv-x="394" 
d="M117 356l-80 32l165 305l155 -303l-76 -34l-82 146z" />
    <glyph glyph-name="underscore" unicode="_" horiz-adv-x="500" 
d="M37 -36h426v-93h-426v93z" />
    <glyph glyph-name="grave" unicode="`" horiz-adv-x="262" 
d="M126 746l86 -163l-60 -50l-102 150z" />
    <glyph glyph-name="a" unicode="a" 
d="M227 500c58 0 100.668 -13.166 128.001 -39.499s41 -68.5 41 -126.5v-334h-93l-11 68c-14 -20.667 -31.167 -38.5 -51.5 -53.5s-42.166 -22.5 -65.499 -22.5c-48 0 -83 11.167 -105 33.5s-33 57.5 -33 105.5v127l239 50v26c0 23.333 -4.5 39.333 -13.5 48
s-25.167 13 -48.5 13c-8.66699 0 -18.834 -1.66699 -30.501 -5s-23.334 -7.5 -35.001 -12.5s-22.667 -10.333 -33 -16s-18.833 -11.167 -25.5 -16.5l-43 86c11.333 8.66699 24.333 17.167 39 25.5s30 15.666 46 21.999s32.167 11.5 48.5 15.5s31.833 6 46.5 6z
M273.001 225.001l-112 -26v-63c0 -17.333 3.66699 -28.333 11 -33s19.333 -7 36 -7c17.333 0 32.5 5.66699 45.5 17s19.5 26 19.5 44v68z" />
    <glyph glyph-name="b" unicode="b" horiz-adv-x="484" 
d="M292 500c57.333 0 97.502 -14 120.502 -42s34.5 -70.667 34.5 -128v-171c0 -56.667 -12.333 -99 -37 -127s-65.334 -42 -122.001 -42c-26 0 -47.833 3.83301 -65.5 11.5s-34.834 21.834 -51.501 42.501l-9 -44h-104v720h124v-271c14.667 15.333 31 27.666 49 36.999
s38.333 14 61 14zM323.002 323c0 24.667 -6.33301 41.499 -19 50.499s-31.667 13.5 -57 13.5c-22 0 -38.333 -7.16699 -49 -21.5s-16 -32.166 -16 -53.499v-139c0 -25.333 5 -43.833 15 -55.5s27.667 -17.5 53 -17.5c21.333 0 38.833 4.5 52.5 13.5s20.5 24.167 20.5 45.5
v164z" />
    <glyph glyph-name="c" unicode="c" horiz-adv-x="413" 
d="M219 390c-40.667 0 -60.999 -20.3301 -60.999 -60.9971v-168c0 -22 5.83301 -37.667 17.5 -47s28.5 -14 50.5 -14c18 0 34.333 3.16699 49 9.5s28 17.166 40 32.499l73 -77c-24.667 -26 -49.834 -45 -75.501 -57s-56.5 -18 -92.5 -18c-56 0 -100.5 14.5 -133.5 43.5
s-49.5 71.5 -49.5 127.5v168c0 26 4.5 49.5 13.5 70.5s21.5 39 37.5 54s35.167 26.5 57.5 34.5s46.833 12 73.5 12c37.333 0 69.333 -5.83301 96 -17.5s51.667 -33.834 75 -66.501l-78 -77c-12.667 15.333 -26.667 27.666 -42 36.999s-32.333 14 -51 14z" />
    <glyph glyph-name="d" unicode="d" horiz-adv-x="476" 
d="M297 720l125.998 -0.000976562v-720h-99l-17 41c-14.667 -14 -30.167 -25.667 -46.5 -35s-33.833 -14 -52.5 -14c-113.333 0 -170 56.667 -170 170v168c0 56.667 13.833 99.334 41.5 128.001s70.5 43 128.5 43c10.667 0 19.834 -0.5 27.501 -1.5s14.834 -3 21.501 -6
s13 -7.16699 19 -12.5s13 -12 21 -20v259zM298.998 312.999c0 23.333 -5.83301 42.167 -17.5 56.5s-29.167 21.5 -52.5 21.5c-22 0 -38.667 -4.83301 -50 -14.5s-17 -25.167 -17 -46.5v-167c0 -24.667 4.66699 -41 14 -49s26.333 -12 51 -12c22 0 39.5 7 52.5 21
s19.5 32.333 19.5 55v135z" />
    <glyph glyph-name="e" unicode="e" horiz-adv-x="445" 
d="M246 100c21.333 0 39.832 4.66895 55.499 14.002s32.167 22.666 49.5 39.999l64 -79c-26 -28 -52.5 -49.167 -79.5 -63.5s-59.167 -21.5 -96.5 -21.5c-64.667 0 -114.5 13.667 -149.5 41s-52.5 73.333 -52.5 138v161c0 56.667 17.167 99.167 51.5 127.5
s80.5 42.5 138.5 42.5c26 0 50 -4 72 -12s40.833 -19.333 56.5 -34s27.834 -32.667 36.501 -54s13 -45 13 -71v-90l-247 -44v-26c0 -24.667 8.5 -42.334 25.5 -53.001s37.833 -16 62.5 -16zM227.999 389.002c-21.333 0 -38.333 -4.83301 -51 -14.5s-19 -24.5 -19 -44.5v-54
l125 22v29c0 19.333 -4.33301 34.5 -13 45.5s-22.667 16.5 -42 16.5z" />
    <glyph glyph-name="f" unicode="f" horiz-adv-x="299" 
d="M82 595c0 45.333 14.166 80.001 42.499 104.001s65.5 36 111.5 36c15.333 0 31 -2.5 47 -7.5s31.333 -10.167 46 -15.5l-26 -93c-8.66699 2 -18.5 4.66699 -29.5 8s-20.5 5 -28.5 5c-19.333 0 -31.166 -5.33301 -35.499 -16s-6.5 -25.334 -6.5 -44.001v-82h101v-83h-101
v-407h-121v407h-77v83h77v105z" />
    <glyph glyph-name="g" unicode="g" horiz-adv-x="457" 
d="M428 9l-0.00195312 -104.003c0 -25.333 -3.83301 -46.666 -11.5 -63.999s-18.5 -31.333 -32.5 -42s-31.167 -18.167 -51.5 -22.5s-43.166 -6.5 -68.499 -6.5h-76c-49.333 0 -88.5 12.5 -117.5 37.5s-43.5 61.833 -43.5 110.5c0 21.333 5 40 15 56s24.333 29.667 43 41
c-16 12 -27.167 25.167 -33.5 39.5s-9.5 31.5 -9.5 51.5c0 19.333 3.83301 35 11.5 47s20.167 23.667 37.5 35l-22.5 25c-6.33301 7.33301 -11.666 15 -15.999 23s-7.66602 16.667 -9.99902 26s-3.5 20.333 -3.5 33v60c0 25.333 4.66699 47.833 14 67.5s22 36.167 38 49.5
s35.167 23.5 57.5 30.5s46.5 10.5 72.5 10.5c18 0 33.333 -2 46 -6s27.334 -10.333 44.001 -19l105 51l28 -84l-65 -28c7.33301 -12 13 -23.667 17 -35s6 -23.666 6 -36.999v-64c0 -28 -4.66699 -51.667 -14 -71s-22.5 -35 -39.5 -47s-37.167 -20.667 -60.5 -26
s-49 -8 -77 -8c-12 0 -22.833 1 -32.5 3s-19.834 4.66699 -30.501 8c-6.66699 0 -11.167 -3.33301 -13.5 -10s-3.5 -12.667 -3.5 -18c0 -11.333 3.66699 -21.166 11 -29.499s15.666 -13.5 24.999 -15.5zM153.998 283.997c0 -21.333 5.83301 -35.666 17.5 -42.999
s28.167 -11 49.5 -11s38 3.5 50 10.5s18 21.5 18 43.5v71c0 21.333 -6 35.666 -18 42.999s-28.667 11 -50 11c-20 0 -36.167 -4 -48.5 -12s-18.5 -22 -18.5 -42v-71zM251.998 -133.003c19.333 0 33.5 3 42.5 9s13.167 18.667 12.5 38v42l-145 28c-10 -6 -15.667 -16 -17 -30
s-2 -26.667 -2 -38c0 -17.333 7.66699 -29.833 23 -37.5s32.333 -11.5 51 -11.5h35v0z" />
    <glyph glyph-name="h" unicode="h" horiz-adv-x="494" 
d="M300 500c28.667 0 52.167 -3.5 70.5 -10.5s32.833 -17.5 43.5 -31.5s18.167 -31.667 22.5 -53s6.5 -46.333 6.5 -75v-330h-124v330c0 21.333 -4 36.666 -12 45.999s-22.667 14 -44 14c-12 0 -23 -2.83301 -33 -8.5s-18.667 -13.167 -26 -22.5s-13 -19.666 -17 -30.999
s-6 -23 -6 -35v-293h-124v720h124v-281c16 19.333 33.5 34.333 52.5 45s41.167 16 66.5 16z" />
    <glyph glyph-name="i" unicode="i" horiz-adv-x="260" 
d="M71 490h124v-490h-124v490zM71 680h124v-126h-124v126z" />
    <glyph glyph-name="j" unicode="j" horiz-adv-x="260" 
d="M68 490l121 0.00292969v-446c0 -47.333 -4.83301 -85.333 -14.5 -114s-23.5 -51.834 -41.5 -69.501s-39.833 -31.834 -65.5 -42.501s-54.5 -21.334 -86.5 -32.001l-41 82c32 18.667 56.667 34 74 46s30 24 38 36s12.667 25.833 14 41.5s2 36.167 2 61.5v437zM65 680.003
h131v-127h-131v127z" />
    <glyph glyph-name="k" unicode="k" horiz-adv-x="442" 
d="M308 270l134 -270h-142l-101 216h-18v-216h-124v710h124v-391h21l88 171h136z" />
    <glyph glyph-name="l" unicode="l" horiz-adv-x="252" 
d="M65 710h124v-710h-124v710z" />
    <glyph glyph-name="m" unicode="m" horiz-adv-x="710" 
d="M512 500c28 0 51.332 -2.33203 69.999 -6.99902s33.667 -12.667 45 -24s19.5 -26.333 24.5 -45s7.5 -41.667 7.5 -69v-355h-124v332c0 11.333 -0.333008 20.833 -1 28.5s-2.66699 13.667 -6 18s-8.33301 7.33301 -15 9s-15.667 2.5 -27 2.5c-26.667 0 -44 -9 -52 -27
s-12 -40.333 -12 -67v-296h-124v332c0 12 -0.333008 21.833 -1 29.5s-2.66699 14 -6 19s-8.16602 8.5 -14.499 10.5s-15.5 3 -27.5 3s-22.167 -3.5 -30.5 -10.5s-15.333 -16 -21 -27s-9.66699 -23 -12 -36s-3.5 -25.167 -3.5 -36.5v-284h-124v490h106l8 -53
c13.333 19.333 29.5 34.666 48.5 45.999s40.167 17 63.5 17c30 0 54.167 -4.33301 72.5 -13s33.5 -26.667 45.5 -54c12 19.333 27.167 35.333 45.5 48s39.833 19 64.5 19z" />
    <glyph glyph-name="n" unicode="n" horiz-adv-x="495" 
d="M293 501c56 0 95 -14.167 117 -42.5s33 -70.833 33 -127.5v-331h-124v310c0 22.667 -3.83301 42 -11.5 58s-22.834 24 -45.501 24c-12 0 -22.833 -2.83301 -32.5 -8.5s-18 -13.167 -25 -22.5s-12.5 -19.833 -16.5 -31.5s-6 -23.5 -6 -35.5v-294h-124v490h111l10 -51
c14 21.333 29.833 37 47.5 47s39.834 15 66.501 15z" />
    <glyph glyph-name="o" unicode="o" horiz-adv-x="459" 
d="M231 500c26 0 50.668 -3.66797 74.001 -11.001s43.833 -18.333 61.5 -33s31.5 -32.5 41.5 -53.5s15 -45.5 15 -73.5v-167c0 -28 -4.83301 -52.667 -14.5 -74s-23 -39.166 -40 -53.499s-37 -25.333 -60 -33s-48.167 -11.5 -75.5 -11.5c-28 0 -54 3.66699 -78 11
s-44.833 18.333 -62.5 33s-31.334 32.667 -41.001 54s-14.5 46 -14.5 74v167c0 28 5 52.5 15 73.5s23.667 38.833 41 53.5s37.833 25.667 61.5 33s49.167 11 76.5 11zM299.001 329.999c0 25.333 -5.16504 41.668 -15.498 49.001s-27.833 11 -52.5 11
c-22.667 0 -40 -4.83301 -52 -14.5s-18 -25.167 -18 -46.5v-166c0 -26.667 5.16699 -43.834 15.5 -51.501s29.166 -11.5 56.499 -11.5c21.333 0 37.666 4.66699 48.999 14s17 25.333 17 48v168z" />
    <glyph glyph-name="p" unicode="p" horiz-adv-x="482" 
d="M294 500c30 0 54.833 -3.16602 74.5 -9.49902s35.334 -16.333 47.001 -30s19.667 -31.334 24 -53.001s6.5 -47.5 6.5 -77.5v-163c0 -56 -11.833 -99.5 -35.5 -130.5s-63.5 -46.5 -119.5 -46.5c-22.667 0 -44.334 5 -65.001 15s-35.667 25.333 -45 46v-272h-124v711h94
l16 -67c12 24 29.167 42.833 51.5 56.5s47.5 20.5 75.5 20.5zM322 325.001c0 23.333 -6.16797 40.167 -18.501 50.5s-31.166 15.5 -56.499 15.5c-21.333 0 -37.666 -7 -48.999 -21s-17 -31.667 -17 -53v-136c0 -22 6.16699 -41.167 18.5 -57.5s29.166 -24.5 50.499 -24.5
c48 0 72 22.667 72 68v158z" />
    <glyph glyph-name="q" unicode="q" horiz-adv-x="459" 
d="M200 500c11.333 0 22.834 -1.16797 34.501 -3.50098s22.667 -6.16602 33 -11.499s19.833 -12 28.5 -20s15 -17.667 19 -29l15 54h92v-711h-124v277c-13.333 -17.333 -27.833 -31.833 -43.5 -43.5s-33.834 -17.5 -54.501 -17.5c-54 0 -94.667 15 -122 45s-41 72 -41 126
v177c0 104.667 54.333 157 163 157zM161.001 183.999c0 -27.333 4.66699 -47.498 14 -60.498s28 -19.5 56 -19.5c22.667 0 39.667 6.66699 51 20s17 31.666 17 54.999v138c0 21.333 -5.83301 39.166 -17.5 53.499s-28.167 21.5 -49.5 21.5
c-22.667 0 -40.167 -3.33301 -52.5 -10s-18.5 -21 -18.5 -43v-155z" />
    <glyph glyph-name="r" unicode="r" horiz-adv-x="316" 
d="M260 497c15.333 0 26.332 -1.16699 32.999 -3.5s13.667 -5.5 21 -9.5l-21 -111c-18.667 9.33301 -35.667 14 -51 14c-18 0 -32.5 -6.33301 -43.5 -19s-16.5 -32 -16.5 -58v-310h-121v490h90l14 -52c13.333 22.667 27.833 38.167 43.5 46.5s32.834 12.5 51.501 12.5z" />
    <glyph glyph-name="s" unicode="s" horiz-adv-x="408" 
d="M256 295c20.667 -8.66699 38.668 -17.502 54.001 -26.502s28 -19 38 -30s17.5 -23.5 22.5 -37.5s7.5 -30.667 7.5 -50c0 -26 -4.33301 -49 -13 -69s-20.667 -36.833 -36 -50.5s-33.666 -24.167 -54.999 -31.5s-44.666 -11 -69.999 -11c-35.333 0 -67.833 7.5 -97.5 22.5
s-55.167 36.5 -76.5 64.5l71 80c5.33301 -8 12 -15.833 20 -23.5s16.667 -14.667 26 -21s19.166 -11.333 29.499 -15s20.166 -5.5 29.499 -5.5c18 0 31.667 2.5 41 7.5s14 16.833 14 35.5c0 8 -3.5 15.333 -10.5 22s-15.667 12.834 -26 18.501s-21.166 10.667 -32.499 15
l-30 11.5c-21.333 8.66699 -39.333 17.5 -54 26.5s-26.667 19.167 -36 30.5s-16 24.333 -20 39s-6 32 -6 52c0 24 4.33301 45.333 13 64s20.5 34.5 35.5 47.5s32.667 22.833 53 29.5s42.5 10 66.5 10c29.333 0 57.666 -7.33301 84.999 -22s51.333 -33 72 -55l-69 -79
c-10.667 12.667 -22.834 24.167 -36.501 34.5s-28.5 15.5 -44.5 15.5c-15.333 0 -27.833 -3.66699 -37.5 -11s-14.5 -18.666 -14.5 -33.999c0 -6.66699 3 -12.5 9 -17.5s13.5 -9.66699 22.5 -14s18.5 -8.33301 28.5 -12s19 -7.16699 27 -10.5z" />
    <glyph glyph-name="t" unicode="t" horiz-adv-x="357" 
d="M238 103c20 0 36.167 2.16797 48.5 6.50098s24.833 9.16602 37.5 14.499l24 -88c-20.667 -10.667 -42.167 -20.5 -64.5 -29.5s-43.5 -13.5 -63.5 -13.5c-48 0 -82 8.83301 -102 26.5s-30 50.5 -30 98.5v287h-76v85h77v144h123v-144h95v-85h-95v-271
c0 -7.33301 2.5 -14.333 7.5 -21s11.167 -10 18.5 -10z" />
    <glyph glyph-name="u" unicode="u" horiz-adv-x="463" 
d="M288 490h123.999v-329c0 -56.667 -15.667 -99.334 -47 -128.001s-74.666 -43 -129.999 -43c-56.667 0 -100.5 14.333 -131.5 43s-46.5 71.334 -46.5 128.001v329h124v-329c0 -21.333 3.5 -36.833 10.5 -46.5s21.5 -14.5 43.5 -14.5c20.667 0 34.667 4.66699 42 14
s11 25 11 47v329z" />
    <glyph glyph-name="v" unicode="v" horiz-adv-x="465" 
d="M234 152l89 338h126l-159 -490h-113l-161 490h127z" />
    <glyph glyph-name="w" unicode="w" horiz-adv-x="601" 
d="M421 131l39 359h125l-99 -490h-128l-55 323l-53 -323h-133l-101 490h125l44 -363l55 363h125z" />
    <glyph glyph-name="x" unicode="x" horiz-adv-x="445" 
d="M166 490l58 -150l57 150h141l-130 -236l136 -254h-141l-63 165l-64 -165h-143l137 254l-127 236h139z" />
    <glyph glyph-name="y" unicode="y" horiz-adv-x="427" 
d="M155 -10l-140.001 499.997h126l74 -372l71 372h126l-159 -568c-13.333 -48 -38.5 -84.333 -75.5 -109s-82.167 -37.667 -135.5 -39l-13 93c10.667 0.666992 21.834 2.83398 33.501 6.50098s22.667 8.33398 33 14.001s19.333 12.334 27 20.001s13.167 16.167 16.5 25.5z
" />
    <glyph glyph-name="z" unicode="z" horiz-adv-x="399" 
d="M352 490v-61l-185 -327h198v-102h-332v73l186 320h-182v97h315z" />
    <glyph glyph-name="braceleft" unicode="{" horiz-adv-x="301" 
d="M256 706c-18 -12 -32.8311 -25.835 -44.498 -41.502s-21 -31.667 -28 -48s-11.833 -33 -14.5 -50s-4 -33.167 -4 -48.5l20 -179l-26 -42l29 -36l-23 -209c1.33301 -37.333 9.16602 -72.666 23.499 -105.999s39.5 -62 75.5 -86l-37 -67c-32.667 22.667 -59.5 45 -80.5 67
s-37.833 43.667 -50.5 65s-21.5 43 -26.5 65s-7.5 45 -7.5 69l29 198l-33 36l35 47l-31 176c0 26.667 3.33301 51.167 10 73.5s16.667 43.5 30 63.5s30.166 39.333 50.499 58s43.833 37.334 70.5 56.001z" />
    <glyph glyph-name="bar" unicode="|" horiz-adv-x="222" 
d="M65 680h92v-827h-92v827z" />
    <glyph glyph-name="braceright" unicode="}" horiz-adv-x="295" 
d="M98 769c26 -19.333 48.833 -38.168 68.5 -56.501s36 -37.5 49 -57.5s22.833 -41.167 29.5 -63.5s10 -47.5 10 -75.5l-30 -176l33 -47l-31 -36l28 -198c0 -24 -2.16699 -46.667 -6.5 -68s-12.333 -42.833 -24 -64.5s-28 -43.5 -49 -65.5s-48.167 -45.333 -81.5 -70l-36 69
c34 23.333 57.667 51.333 71 84s21 68.667 23 108l-22 208l28 37l-25 43l19 178c0 15.333 -1.16699 31.333 -3.5 48s-6.5 33.334 -12.5 50.001s-14.667 32.667 -26 48s-26.333 29.333 -45 42z" />
    <glyph glyph-name="asciitilde" unicode="~" horiz-adv-x="401" 
d="M140 620c-6 0 -12.9941 -3.66992 -20.9941 -11.0029s-15 -17.666 -21 -30.999l-47 42c15.333 28.667 29.666 49.834 42.999 63.501s30.666 20.5 51.999 20.5c11.333 0 22.166 -2 32.499 -6s20 -8.16699 29 -12.5s17.167 -8.5 24.5 -12.5s13.333 -6 18 -6
c12.667 0 21.5 4.83301 26.5 14.5l13.5 26.5l52 -35c-2.66699 -12 -6.33398 -23.5 -11.001 -34.5s-10.334 -20.667 -17.001 -29s-14.334 -15.166 -23.001 -20.499s-18.667 -8 -30 -8c-12.667 0 -24.167 2 -34.5 6s-20 8.5 -29 13.5s-18 9.5 -27 13.5s-19.167 6 -30.5 6z" />
    <glyph glyph-name="uni00A0" unicode="&#xa0;" horiz-adv-x="208" 
 />
    <glyph glyph-name="exclamdown" unicode="&#xa1;" horiz-adv-x="253" 
d="M72 -204l13 461h107l15 -461h-135zM196 370h-116v120h116v-120z" />
    <glyph glyph-name="cent" unicode="&#xa2;" horiz-adv-x="429" 
d="M232 394c-22.667 0 -40.502 -6.16504 -53.502 -18.498s-19.5 -29.833 -19.5 -52.5v-159c0 -25.333 6.33301 -43.5 19 -54.5s30.667 -16.5 54 -16.5c15.333 0 31.5 3.16699 48.5 9.5s31.833 14.833 44.5 25.5l60 -81c-16.667 -19.333 -36.167 -34.333 -58.5 -45
s-47.166 -17.334 -74.499 -20.001h-6l-18 -117l-97 18l17 110c-38 11.333 -66 32.166 -84 62.499s-27 66.5 -27 108.5v159c0 22.667 3.83301 44.334 11.5 65.001s18.167 38.667 31.5 54s29.5 27.666 48.5 36.999s39.833 14 62.5 14h17l17 140l102 -14l-17 -127
c18 -8.66699 33.333 -19 46 -31s24.667 -25 36 -39l-82 -78c-10 10.667 -21.167 21.667 -33.5 33s-27.166 17 -44.499 17z" />
    <glyph glyph-name="sterling" unicode="&#xa3;" horiz-adv-x="474" 
d="M270 223c0 -36 -5.49707 -63.8291 -16.4971 -83.4961s-21.5 -29.5 -31.5 -29.5h215v-110h-399v83c30 3.33301 52.667 12.5 68 27.5s26.166 30.667 32.499 47s9.66602 30.166 9.99902 41.499s0.5 14.666 0.5 9.99902l-6 80h-106v90h98l-8 106c0 39.333 7 71.833 21 97.5
s33.333 46.167 58 61.5s53.667 26.166 87 32.499s69.333 9.83301 108 10.5v-110c-54 0 -92.5 -9.5 -115.5 -28.5s-34.5 -45.5 -34.5 -79.5l7 -90h114v-90h-106c0 -6 0.333008 -13 1 -21s1.16699 -15.5 1.5 -22.5s0.666016 -12.833 0.999023 -17.5s0.5 -6.33398 0.5 -5.00098
z" />
    <glyph glyph-name="yen" unicode="&#xa5;" horiz-adv-x="582" 
d="M69 342h141l-194 338h134l139 -252l144 252h133l-195 -338h150v-68h-171v-63h170v-64h-170v-147h-121v147h-159v64h159v63h-160v68z" />
    <glyph glyph-name="brokenbar" unicode="&#xa6;" horiz-adv-x="174" 
d="M37 233h100v-335h-100v335zM37 700h100v-334h-100v334z" />
    <glyph glyph-name="section" unicode="&#xa7;" horiz-adv-x="494" 
d="M298 386c25.333 -12.667 48.0039 -25.6709 68.0039 -39.0039s37 -27.833 51 -43.5s24.667 -33.167 32 -52.5s11 -41.666 11 -66.999c0 -26.667 -5.33301 -51 -16 -73s-25.667 -40.667 -45 -56c5.33301 -7.33301 9.83301 -16.5 13.5 -27.5s6.66699 -21.833 9 -32.5
s4 -20.5 5 -29.5s1.5 -15.167 1.5 -18.5c0 -30 -7 -55.5 -21 -76.5s-31.167 -37.833 -51.5 -50.5s-41.5 -21.834 -63.5 -27.501s-41 -8.5 -57 -8.5c-21.333 0 -41.333 2.83301 -60 8.5s-35.5 13 -50.5 22s-28.167 19.5 -39.5 31.5s-20.333 24 -27 36l67 75
c7.33301 -11.333 16 -21.5 26 -30.5s20.5 -16.667 31.5 -23s21.667 -11.166 32 -14.499s19.5 -5 27.5 -5c14.667 0 26.667 2.66699 36 8s16.666 12 21.999 20s9 16.667 11 26s3 18 3 26c0 17.333 -3.33301 32.5 -10 45.5s-15.334 24.5 -26.001 34.5
s-22.834 19.167 -36.501 27.5s-27.834 16.166 -42.501 23.499c-26 13.333 -48.667 26.5 -68 39.5s-35.666 27.5 -48.999 43.5s-23.333 34 -30 54s-10 43.333 -10 70c0 28 4 49.833 12 65.5s19.333 30.834 34 45.501c-8.66699 19.333 -14 37.333 -16 54s-3 32.334 -3 47.001
c0 32.667 5.83301 60.167 17.5 82.5s26.5 40.333 44.5 54s38.333 23.5 61 29.5s45 9 67 9c20.667 0 40 -2.66699 58 -8s34.333 -12.333 49 -21s27.167 -18 37.5 -28s18.166 -20 23.499 -30l-61 -71c-12 14.667 -23.167 26.334 -33.5 35.001s-20 15.334 -29 20.001
s-17.5 7.66699 -25.5 9s-15.667 2 -23 2c-12 0 -22.167 -2.5 -30.5 -7.5s-15 -11.5 -20 -19.5s-8.66699 -17 -11 -27s-3.5 -20.333 -3.5 -31c0 -22 3.5 -39.667 10.5 -53s15.667 -24.5 26 -33.5s21.833 -16.333 34.5 -22s25 -11.5 37 -17.5zM339.004 179.996
c0 14 -1.33203 25.833 -3.99902 35.5s-7.16699 18.5 -13.5 26.5s-14.833 15.5 -25.5 22.5s-24.334 14.833 -41.001 23.5l-54.5 29c-15 8 -29.5 17.333 -43.5 28c-4.66699 -9.33301 -7.66699 -16.333 -9 -21s-2 -12.334 -2 -23.001c0 -15.333 7.66699 -30.666 23 -45.999
s33.666 -27.666 54.999 -36.999c10.667 -4.66699 21.5 -10.334 32.5 -17.001l31 -19.5c9.66699 -6.33301 18.334 -12.5 26.001 -18.5s13.5 -11 17.5 -15c4 5.33301 6.33301 11 7 17s1 11 1 15z" />
    <glyph glyph-name="dieresis" unicode="&#xa8;" horiz-adv-x="373" 
d="M157 593h-107v107h107v-107zM323 593h-106v107h106v-107z" />
    <glyph glyph-name="copyright" unicode="&#xa9;" horiz-adv-x="682" 
d="M37 351c0 50 6.49902 96.667 19.499 140s32.167 80.833 57.5 112.5s57 56.667 95 75s82 27.5 132 27.5c49.333 0 92.833 -9.33301 130.5 -28s69.334 -44 95.001 -76s45.167 -69.5 58.5 -112.5s20 -89.167 20 -138.5c0 -50 -6.5 -96.5 -19.5 -139.5
s-32.333 -80.5 -58 -112.5s-57.5 -57 -95.5 -75s-81.667 -27 -131 -27c-48.667 0 -92 9.16699 -130 27.5s-69.833 43.5 -95.5 75.5s-45.167 69.5 -58.5 112.5s-20 89.167 -20 138.5zM116.999 350c0 -38 4.5 -73.999 13.5 -107.999s22.833 -63.833 41.5 -89.5
s42.167 -45.834 70.5 -60.501s61.5 -22 99.5 -22s71 7.5 99 22.5s51.167 35.333 69.5 61s32.166 55.334 41.499 89.001s14 69.5 14 107.5s-4.5 74.167 -13.5 108.5s-22.667 64.166 -41 89.499s-41.666 45.5 -69.999 60.5s-61.5 22.5 -99.5 22.5s-71 -7.66699 -99 -23
s-51.333 -35.833 -70 -61.5s-32.667 -55.5 -42 -89.5s-14 -69.667 -14 -107zM345.999 431.001c-33.333 0 -50 -17 -50 -51v-73c0 -19.333 4.5 -32.833 13.5 -40.5s23.167 -11.5 42.5 -11.5c14 0 27.167 3.5 39.5 10.5s24.166 15.833 35.499 26.5l51 -65
c-15.333 -18 -35.166 -33.5 -59.499 -46.5s-48.166 -19.5 -71.499 -19.5c-48.667 0 -87.167 12 -115.5 36s-42.5 60.667 -42.5 110v73c0 46.667 14.167 82.5 42.5 107.5s66.5 37.5 114.5 37.5c31.333 0 56.666 -6.5 75.999 -19.5s38.333 -31.833 57 -56.5l-64 -55
c-11.333 12 -21.5 21.167 -30.5 27.5s-21.833 9.5 -38.5 9.5z" />
    <glyph glyph-name="ordfeminine" unicode="&#xaa;" horiz-adv-x="321" 
d="M155 688c40.667 0 72 -8 94 -24s33 -44.667 33 -86v-210h-58l-13 53c-7.33301 -15.333 -17.5 -28.333 -30.5 -39s-26.833 -16 -41.5 -16c-32.667 0 -57.834 8.5 -75.501 25.5s-26.5 41.833 -26.5 74.5v63l152 27v20c0 14.667 -2.5 24.667 -7.5 30s-14.5 8 -28.5 8
c-10.667 0 -22.167 -2.5 -34.5 -7.5s-22.166 -9.83301 -29.499 -14.5l-24 64c15.333 9.33301 29.333 17 42 23s28.667 9 48 9zM186 498l-56 -9v-27c0 -6.66699 2.5 -11.667 7.5 -15s10.5 -5 16.5 -5c8 0 15.333 1.66699 22 5s10 9 10 17v34z" />
    <glyph glyph-name="guillemotleft" unicode="&#xab;" horiz-adv-x="415" 
d="M336 -9l-139 184l139 189l42 -51l-75 -137l74 -129zM177 -9l-140 184l140 189l42 -51l-76 -137l75 -129z" />
    <glyph glyph-name="logicalnot" unicode="&#xac;" horiz-adv-x="406" 
d="M37 336h332v-180h-94v87h-238v93z" />
    <glyph glyph-name="registered" unicode="&#xae;" horiz-adv-x="682" 
d="M37 351c0 49.333 6.50098 95.667 19.501 139s32.333 81 58 113s57.5 57.167 95.5 75.5s81.667 27.5 131 27.5c48.667 0 91.834 -9.33301 129.501 -28s69.5 -44.167 95.5 -76.5s45.667 -70 59 -113s20 -88.833 20 -137.5c0 -49.333 -6.66699 -95.5 -20 -138.5
s-32.833 -80.5 -58.5 -112.5s-57.334 -57.167 -95.001 -75.5s-81.167 -27.5 -130.5 -27.5c-48.667 0 -91.834 9.33301 -129.501 28s-69.5 44 -95.5 76s-45.667 69.5 -59 112.5s-20 88.833 -20 137.5zM117.001 350.001c0 -38 4.66895 -74 14.002 -108
s23.166 -63.667 41.499 -89s41.666 -45.5 69.999 -60.5s61.5 -22.5 99.5 -22.5c37.333 0 70 7.5 98 22.5s51.333 35.333 70 61s32.667 55.5 42 89.5s14 69.667 14 107c0 38 -4.5 74 -13.5 108s-22.833 63.833 -41.5 89.5s-42 46 -70 61s-61 22.5 -99 22.5
c-37.333 0 -70 -7.66699 -98 -23s-51.5 -35.833 -70.5 -61.5s-33.167 -55.5 -42.5 -89.5s-14 -69.667 -14 -107zM473.003 390.001c0 -22.667 -5.16797 -39.333 -15.501 -50s-25.166 -21 -44.499 -31l77 -144h-96l-72 132h-18v-132h-89v369h151c34 0 60.333 -8 79 -24
s28 -41 28 -75v-45v0zM304.002 361.002l75 7.00098c2 3.33301 3.33301 7.66602 4 12.999s1 10 1 14l-3 45c-3.33301 5.33301 -6.83301 10 -10.5 14s-8.16699 6 -13.5 6h-53v-99z" />
    <glyph glyph-name="macron" unicode="&#xaf;" horiz-adv-x="397" 
d="M347 639h-297v61h297v-61z" />
    <glyph glyph-name="degree" unicode="&#xb0;" horiz-adv-x="345" 
d="M165 690c20 0 38.8291 -2.66699 56.4961 -8s32.834 -13.5 45.501 -24.5s22.667 -24.5 30 -40.5s11 -34 11 -54v-27c0 -19.333 -3.5 -36.666 -10.5 -51.999s-16.667 -28.5 -29 -39.5s-26.666 -19.333 -42.999 -25s-34.166 -8.5 -53.499 -8.5
c-39.333 0 -71.666 11 -96.999 33s-38 52.667 -38 92v27c0 18 3.16699 34.833 9.5 50.5s15 29.167 26 40.5s24.5 20.166 40.5 26.499s33.333 9.5 52 9.5zM209.996 569c0 14 -2.66602 24.999 -7.99902 32.999s-15.333 12 -30 12c-14 0 -23.5 -4.16699 -28.5 -12.5
s-7.5 -19.166 -7.5 -32.499v-36c0 -14 2.83301 -24.833 8.5 -32.5s15.5 -11.5 29.5 -11.5c13.333 0 22.666 4 27.999 12s8 18.667 8 32v36z" />
    <glyph glyph-name="plusminus" unicode="&#xb1;" horiz-adv-x="489" 
d="M297 404h139v-101h-139v-159h-113v159h-132v101h132v151h113v-151zM37 92h415v-92h-415v92z" />
    <glyph glyph-name="twosuperior" unicode="&#xb2;" horiz-adv-x="401" 
d="M203 690c38.667 0 68.167 -7.83496 88.5 -23.502s30.5 -41.167 30.5 -76.5c0 -19.333 -5.83301 -37.833 -17.5 -55.5s-25.834 -31.5 -42.501 -41.5c-6.66699 -4 -14.5 -7.66699 -23.5 -11s-17.5 -7.16602 -25.5 -11.499s-14.833 -9.33301 -20.5 -15
s-8.16699 -12.167 -7.5 -19.5h137v-81h-246v25c0 39.333 6.83301 73 20.5 101s39.167 49.667 76.5 65c5.33301 2 11 4 17 6s11.667 4.33301 17 7s9.83301 6 13.5 10s5.5 9.33301 5.5 16c0 7.33301 -3.16699 13 -9.5 17s-13.833 6 -22.5 6c-14 0 -27.667 -3.83301 -41 -11.5
s-25.333 -16.167 -36 -25.5l-45 62c6.66699 9.33301 15.334 17.5 26.001 24.5s22 12.833 34 17.5s24.333 8.33398 37 11.001s24 4 34 4z" />
    <glyph glyph-name="threesuperior" unicode="&#xb3;" horiz-adv-x="323" 
d="M300 582c0 -18 -5.83105 -33.6699 -17.498 -47.0029s-25.5 -22.666 -41.5 -27.999c16 -6.66699 30.333 -16.167 43 -28.5s19 -27.166 19 -44.499v-15c0 -20 -3.16699 -36.5 -9.5 -49.5s-15.333 -23.5 -27 -31.5s-25.667 -13.5 -42 -16.5s-34.5 -4.5 -54.5 -4.5
c-29.333 0 -55.5 4.5 -78.5 13.5s-42.167 25.167 -57.5 48.5l60 55c7.33301 -12 17.5 -21.667 30.5 -29s27.167 -11 42.5 -11c12 0 22 1.66699 30 5s12 11.666 12 24.999v11c0 24.667 -13 37 -39 37h-66v71h63c9.33301 0 18.166 2.5 26.499 7.5s12.5 12.5 12.5 22.5v15
c0 8.66699 -3.66699 15 -11 19s-15 6 -23 6c-14 0 -27.167 -1.16699 -39.5 -3.5s-22.5 -9.16602 -30.5 -20.499l-56 45c6 10.667 13.833 19.5 23.5 26.5s20.5 12.667 32.5 17s24.5 7.5 37.5 9.5s25.5 3 37.5 3c37.333 0 67.166 -7.16699 89.499 -21.5
s33.5 -40.166 33.5 -77.499v-9z" />
    <glyph glyph-name="acute" unicode="&#xb4;" horiz-adv-x="264" 
d="M139 731l75 -51l-105 -152l-59 46z" />
    <glyph glyph-name="paragraph" unicode="&#xb6;" horiz-adv-x="491" 
d="M426 680v-680.001h-83v613h-49v-613h-90v367h-30c-44 0 -77.833 10.333 -101.5 31s-35.5 53 -35.5 97v47c0 42 12 75.333 36 100s57.667 37.334 101 38.001h252z" />
    <glyph glyph-name="periodcentered" unicode="&#xb7;" horiz-adv-x="236" 
d="M51 334h128v-135h-128v135z" />
    <glyph glyph-name="cedilla" unicode="&#xb8;" horiz-adv-x="259" 
d="M154 0l-11.002 -59.002c6 -3.33301 12.667 -7.33301 20 -12s14.5 -10.834 21.5 -18.501s12.833 -17 17.5 -28s7 -24.167 7 -39.5c0 -17.333 -3 -32.166 -9 -44.499s-14.5 -23.333 -25.5 -33s-24.167 -18.167 -39.5 -25.5s-32.666 -15 -51.999 -23l-32 66
c12.667 6.66699 24.834 13.834 36.501 21.501s17.5 20.167 17.5 37.5c0 10 -1 18.333 -3 25s-5.16699 12.167 -9.5 16.5s-10 7.83301 -17 10.5s-15.5 5.33398 -25.5 8.00098l16 98h88z" />
    <glyph glyph-name="onesuperior" unicode="&#xb9;" horiz-adv-x="261" 
d="M108 575h-85v105h187v-336h-102v231z" />
    <glyph glyph-name="ordmasculine" unicode="&#xba;" horiz-adv-x="345" 
d="M172 688c19.333 0 37.168 -2.00195 53.501 -6.00195s30.666 -10.167 42.999 -18.5s22 -19.166 29 -32.499s10.5 -29.333 10.5 -48v-94c0 -18.667 -3.5 -35.167 -10.5 -49.5s-16.667 -26 -29 -35s-26.833 -15.833 -43.5 -20.5s-34.334 -7 -53.001 -7
c-39.333 0 -71.666 8.83301 -96.999 26.5s-38 46.167 -38 85.5v100c0 15.333 4 29 12 41s18.5 22.333 31.5 31s27.5 15.334 43.5 20.001s32 7 48 7zM208.002 576.998c0 8.66699 -3.5 15.332 -10.5 19.999s-15.167 7 -24.5 7c-10.667 0 -19.167 -2.5 -25.5 -7.5
s-9.5 -12.167 -9.5 -21.5v-75c0 -15.333 2 -26.166 6 -32.499s13.667 -9.5 29 -9.5s25 3.5 29 10.5s6 18.5 6 34.5v74z" />
    <glyph glyph-name="guillemotright" unicode="&#xbb;" horiz-adv-x="410" 
d="M103 176l-75 137l42 51l140 -189l-140 -184l-41 56zM263 176l-75 137l42 51l139 -189l-139 -184l-41 56z" />
    <glyph glyph-name="onequarter" unicode="&#xbc;" horiz-adv-x="695" 
d="M108 575h-85v105h187v-336h-102v231zM69 0l400 680h99l-395 -680h-104zM589 153h67v-75h-67v-78h-91v78h-165v48l132 232h124v-205zM498 273h-11l-50 -120h61v120z" />
    <glyph glyph-name="onehalf" unicode="&#xbd;" horiz-adv-x="648" 
d="M108 575h-85v105h187v-336h-102v231zM52 0l400 680h99l-395 -680h-104zM504 333c38.667 0 68.167 -7.83496 88.5 -23.502s30.5 -41.167 30.5 -76.5c0 -19.333 -5.83301 -37.833 -17.5 -55.5s-25.834 -31.5 -42.501 -41.5c-6.66699 -4 -14.5 -7.66699 -23.5 -11
s-17.5 -7.16602 -25.5 -11.499s-14.833 -9.33301 -20.5 -15s-8.16699 -12.167 -7.5 -19.5h137v-81h-246v25c0 39.333 6.83301 73 20.5 101s39.167 49.667 76.5 65c5.33301 2 11 4 17 6s11.667 4.33301 17 7s9.83301 6 13.5 10s5.5 9.33301 5.5 16
c0 7.33301 -3.16699 13 -9.5 17s-13.833 6 -22.5 6c-14 0 -27.667 -3.83301 -41 -11.5s-25.333 -16.167 -36 -25.5l-45 62c6.66699 9.33301 15.334 17.5 26.001 24.5s22 12.833 34 17.5s24.333 8.33398 37 11.001s24 4 34 4z" />
    <glyph glyph-name="threequarters" unicode="&#xbe;" horiz-adv-x="769" 
d="M294 582c0 -18 -5.83105 -33.6699 -17.498 -47.0029s-25.5 -22.666 -41.5 -27.999c16 -6.66699 30.333 -16.167 43 -28.5s19 -27.166 19 -44.499v-15c0 -20 -3.16699 -36.5 -9.5 -49.5s-15.333 -23.5 -27 -31.5s-25.667 -13.5 -42 -16.5s-34.5 -4.5 -54.5 -4.5
c-29.333 0 -55.5 4.5 -78.5 13.5s-42.167 25.167 -57.5 48.5l60 55c7.33301 -12 17.5 -21.667 30.5 -29s27.167 -11 42.5 -11c12 0 22 1.66699 30 5s12 11.666 12 24.999v11c0 24.667 -13 37 -39 37h-66v71h63c9.33301 0 18.166 2.5 26.499 7.5s12.5 12.5 12.5 22.5v15
c0 8.66699 -3.66699 15 -11 19s-15 6 -23 6c-14 0 -27.167 -1.16699 -39.5 -3.5s-22.5 -9.16602 -30.5 -20.499l-56 45c6 10.667 13.833 19.5 23.5 26.5s20.5 12.667 32.5 17s24.5 7.5 37.5 9.5s25.5 3 37.5 3c37.333 0 67.166 -7.16699 89.499 -21.5
s33.5 -40.166 33.5 -77.499v-9zM135.002 -0.00292969l400 680h99l-395 -680h-104zM637.002 152.997h67v-75h-67v-78h-91v78h-165v48l132 232h124v-205zM546.002 272.997h-11l-50 -120h61v120z" />
    <glyph glyph-name="questiondown" unicode="&#xbf;" horiz-adv-x="399" 
d="M192 -219c-51.333 0 -90.5 10.5049 -117.5 31.5049s-40.5 56.5 -40.5 106.5v51c0 15.333 3 32 9 50s14.667 33.667 26 47c21.333 24.667 40.166 49.167 56.499 73.5s24.5 53.166 24.5 86.499v34h115v-61c0 -14.667 -2.33301 -29.834 -7 -45.501
s-10.834 -30.834 -18.501 -45.501s-16 -28.834 -25 -42.501s-18.167 -25.834 -27.5 -36.501l-23 -30c-6 -8 -9 -20 -9 -36v-32c0 -18.667 3 -30.334 9 -35.001s18.333 -7 37 -7c10 0 20.333 2.33301 31 7s20.834 10.334 30.501 17.001s18.667 14 27 22l21.5 21l67 -75
c-23.333 -32.667 -51.666 -57.667 -84.999 -75s-67 -26 -101 -26zM271 355.005h-134v135h134v-135z" />
    <glyph glyph-name="Agrave" unicode="&#xc0;" horiz-adv-x="549" 
d="M353 682l177 -682h-126l-39 161h-179l-40 -161h-127l182 682h152zM339 261l-63 295l-64 -295h127zM245 954l86 -163l-60 -50l-102 150z" />
    <glyph glyph-name="Aacute" unicode="&#xc1;" horiz-adv-x="549" 
d="M353 682l177 -682h-126l-39 161h-179l-40 -161h-127l182 682h152zM339 261l-63 295l-64 -295h127zM302 941l75 -51l-105 -152l-59 46z" />
    <glyph glyph-name="Acircumflex" unicode="&#xc2;" horiz-adv-x="549" 
d="M353 682l177 -682h-126l-39 161h-179l-40 -161h-127l182 682h152zM339 261l-63 295l-64 -295h127zM270 899l116 -102l-41 -60l-75 55l-73 -55l-41 63z" />
    <glyph glyph-name="Atilde" unicode="&#xc3;" horiz-adv-x="549" 
d="M353 682l177 -682h-126l-39 161h-179l-40 -161h-127l182 682h152zM339 261l-63 295l-64 -295h127zM215 790c-6 0 -12.9941 -3.66992 -20.9941 -11.0029s-15 -17.666 -21 -30.999l-47 42c15.333 28.667 29.666 49.834 42.999 63.501s30.666 20.5 51.999 20.5
c11.333 0 22.166 -2 32.499 -6s20 -8.16699 29 -12.5s17.167 -8.5 24.5 -12.5s13.333 -6 18 -6c12.667 0 21.5 4.83301 26.5 14.5l13.5 26.5l52 -35c-2.66699 -12 -6.33398 -23.5 -11.001 -34.5s-10.334 -20.667 -17.001 -29s-14.334 -15.166 -23.001 -20.499
s-18.667 -8 -30 -8c-12.667 0 -24.167 2 -34.5 6s-20 8.5 -29 13.5s-18 9.5 -27 13.5s-19.167 6 -30.5 6z" />
    <glyph glyph-name="Adieresis" unicode="&#xc4;" horiz-adv-x="549" 
d="M353 682l177 -682h-126l-39 161h-179l-40 -161h-127l182 682h152zM339 261l-63 295l-64 -295h127zM242 762h-107v107h107v-107zM408 762h-106v107h106v-107z" />
    <glyph glyph-name="Aring" unicode="&#xc5;" horiz-adv-x="549" 
d="M353 682l177 -682h-126l-39 161h-179l-40 -161h-127l182 682h152zM339 261l-63 295l-64 -295h127zM277 748c-25.333 0 -44.5 7.66895 -57.5 23.002s-19.5 33.666 -19.5 54.999c0 28 8 47.833 24 59.5s33.667 17.5 53 17.5c26 0 45.167 -7.33301 57.5 -22
s18.5 -33 18.5 -55c0 -26.667 -7.66699 -46.334 -23 -59.001s-33 -19 -53 -19zM248 826.002c0 -10 0.998047 -17.499 2.99805 -22.499s4.5 -8.5 7.5 -10.5s6.16699 -3.16699 9.5 -3.5s6.33301 -0.5 9 -0.5c8.66699 0 16.334 1.83301 23.001 5.5s10 14.167 10 31.5
c0 10 -1.16699 17.667 -3.5 23s-5.16602 9.16602 -8.49902 11.499s-6.83301 3.66602 -10.5 3.99902s-7.16699 0.5 -10.5 0.5c-6.66699 0 -13.167 -2.16699 -19.5 -6.5s-9.5 -15.166 -9.5 -32.499z" />
    <glyph glyph-name="AE" unicode="&#xc6;" horiz-adv-x="797" 
d="M537 303v-193h230v-110h-354v159h-181l-78 -159h-138l319 680h415v-110h-214v-167h179v-100h-178zM413 259v323l-141 -323h141z" />
    <glyph glyph-name="Ccedilla" unicode="&#xc7;" horiz-adv-x="535" 
d="M268 580c-31.333 0 -55.833 -8.5 -73.5 -25.5s-26.5 -41.167 -26.5 -72.5v-284c0 -65.333 33.667 -98 101 -98c15.333 0 28.666 1.5 39.999 4.5s21.5 7.16699 30.5 12.5s17.5 11.833 25.5 19.5l27 25.5l73 -87c-28 -29.333 -57.667 -50.833 -89 -64.5
s-67 -20.5 -107 -20.5c-68 0 -122.5 17.5 -163.5 52.5s-61.5 86.833 -61.5 155.5v284c0 32 5.5 60.833 16.5 86.5s26.5 47.5 46.5 65.5s43.667 31.833 71 41.5s57.333 14.5 90 14.5c24 0 45.5 -1.66699 64.5 -5s36.5 -9 52.5 -17s30.833 -18.333 44.5 -31s26.5 -28 38.5 -46
l-79 -77c-9.33301 15.333 -24.166 30 -44.499 44s-45.833 21.333 -76.5 22zM340 0l-11.002 -59.002c6 -3.33301 12.667 -7.33301 20 -12s14.5 -10.834 21.5 -18.501s12.833 -17 17.5 -28s7 -24.167 7 -39.5c0 -17.333 -3 -32.166 -9 -44.499s-14.5 -23.333 -25.5 -33
s-24.167 -18.167 -39.5 -25.5s-32.666 -15 -51.999 -23l-32 66c12.667 6.66699 24.834 13.834 36.501 21.501s17.5 20.167 17.5 37.5c0 10 -1 18.333 -3 25s-5.16699 12.167 -9.5 16.5s-10 7.83301 -17 10.5s-15.5 5.33398 -25.5 8.00098l16 98h88z" />
    <glyph glyph-name="Egrave" unicode="&#xc8;" horiz-adv-x="454" 
d="M185 292v-182h232v-110h-352v680h335v-110h-215v-173h181v-105h-181zM205 946l86 -163l-60 -50l-102 150z" />
    <glyph glyph-name="Eacute" unicode="&#xc9;" horiz-adv-x="454" 
d="M185 292v-182h232v-110h-352v680h335v-110h-215v-173h181v-105h-181zM261 941l75 -51l-105 -152l-59 46z" />
    <glyph glyph-name="Ecircumflex" unicode="&#xca;" horiz-adv-x="454" 
d="M185 292v-182h232v-110h-352v680h335v-110h-215v-173h181v-105h-181zM229 899l116 -102l-41 -60l-75 55l-73 -55l-41 63z" />
    <glyph glyph-name="Edieresis" unicode="&#xcb;" horiz-adv-x="454" 
d="M185 292v-182h232v-110h-352v680h335v-110h-215v-173h181v-105h-181zM201 762h-107v107h107v-107zM367 762h-106v107h106v-107z" />
    <glyph glyph-name="Igrave" unicode="&#xcc;" horiz-adv-x="325" 
d="M113 680h124v-680h-124v680zM133 956l86 -163l-60 -50l-102 150z" />
    <glyph glyph-name="Iacute" unicode="&#xcd;" horiz-adv-x="325" 
d="M103 680h124v-680h-124v680zM178 941l75 -51l-105 -152l-59 46z" />
    <glyph glyph-name="Icircumflex" unicode="&#xce;" horiz-adv-x="325" 
d="M100 680h124v-680h-124v680zM146 900l116 -102l-41 -60l-75 55l-73 -55l-41 63z" />
    <glyph glyph-name="Idieresis" unicode="&#xcf;" horiz-adv-x="325" 
d="M118 680h124v-680h-124v680zM135 760h-107v107h107v-107zM301 760h-106v107h106v-107z" />
    <glyph glyph-name="Eth" unicode="&#xd0;" horiz-adv-x="576" 
d="M18 384h95.002v290h191c40 0 74.833 -5 104.5 -15s54.167 -24.167 73.5 -42.5s33.666 -40.333 42.999 -66s14 -54.167 14 -85.5v-258c0 -36 -6.16699 -67.167 -18.5 -93.5s-29.333 -47.833 -51 -64.5s-46.834 -29 -75.501 -37s-59 -12 -91 -12h-190v293h-95v91z
M415.002 468c0 36.667 -8.5 61.833 -25.5 75.5s-45.5 20.5 -85.5 20.5h-67v-180h117v-91h-117v-183h66c41.333 0 70.333 9 87 27s25 41.333 25 70v261z" />
    <glyph glyph-name="Ntilde" unicode="&#xd1;" horiz-adv-x="611" 
d="M436 680h110v-680h-196l-175 541v-541h-110v680h178l193 -551v551zM239 780c-6 0 -12.9941 -3.66992 -20.9941 -11.0029s-15 -17.666 -21 -30.999l-47 42c15.333 28.667 29.666 49.834 42.999 63.501s30.666 20.5 51.999 20.5c11.333 0 22.166 -2 32.499 -6
s20 -8.16699 29 -12.5s17.167 -8.5 24.5 -12.5s13.333 -6 18 -6c12.667 0 21.5 4.83301 26.5 14.5l13.5 26.5l52 -35c-2.66699 -12 -6.33398 -23.5 -11.001 -34.5s-10.334 -20.667 -17.001 -29s-14.334 -15.166 -23.001 -20.499s-18.667 -8 -30 -8
c-12.667 0 -24.167 2 -34.5 6s-20 8.5 -29 13.5s-18 9.5 -27 13.5s-19.167 6 -30.5 6z" />
    <glyph glyph-name="Ograve" unicode="&#xd2;" horiz-adv-x="571" 
d="M292 690c32.667 0 63.166 -4.66699 91.499 -14s53 -22.833 74 -40.5s37.667 -39.334 50 -65.001s18.5 -54.834 18.5 -87.501v-285c0 -34 -6 -63.833 -18 -89.5s-28.5 -47.334 -49.5 -65.001s-45.667 -31 -74 -40s-59.166 -13.5 -92.499 -13.5h-13
c-34 0 -65.333 4.33301 -94 13s-53.5 21.834 -74.5 39.501s-37.333 39.5 -49 65.5s-17.5 56 -17.5 90v285c0 32 6.16699 60.833 18.5 86.5s29 47.334 50 65.001s45.667 31.334 74 41.001s58.833 14.5 91.5 14.5h14v0zM401.999 482c0 31.333 -10.499 55.5 -31.499 72.5
s-47.167 25.5 -78.5 25.5h-14c-31.333 0 -57.5 -8.33301 -78.5 -25s-31.5 -40.667 -31.5 -72v-285c0 -34 10.167 -58.833 30.5 -74.5s47.166 -23.5 80.499 -23.5h13c34 0 60.833 7.83301 80.5 23.5s29.5 40.5 29.5 74.5v284zM248 956l86 -163l-60 -50l-102 150z" />
    <glyph glyph-name="Oacute" unicode="&#xd3;" horiz-adv-x="571" 
d="M292 690c32.667 0 63.166 -4.66699 91.499 -14s53 -22.833 74 -40.5s37.667 -39.334 50 -65.001s18.5 -54.834 18.5 -87.501v-285c0 -34 -6 -63.833 -18 -89.5s-28.5 -47.334 -49.5 -65.001s-45.667 -31 -74 -40s-59.166 -13.5 -92.499 -13.5h-13
c-34 0 -65.333 4.33301 -94 13s-53.5 21.834 -74.5 39.501s-37.333 39.5 -49 65.5s-17.5 56 -17.5 90v285c0 32 6.16699 60.833 18.5 86.5s29 47.334 50 65.001s45.667 31.334 74 41.001s58.833 14.5 91.5 14.5h14v0zM401.999 482c0 31.333 -10.499 55.5 -31.499 72.5
s-47.167 25.5 -78.5 25.5h-14c-31.333 0 -57.5 -8.33301 -78.5 -25s-31.5 -40.667 -31.5 -72v-285c0 -34 10.167 -58.833 30.5 -74.5s47.166 -23.5 80.499 -23.5h13c34 0 60.833 7.83301 80.5 23.5s29.5 40.5 29.5 74.5v284zM304 941l75 -51l-105 -152l-59 46z" />
    <glyph glyph-name="Ocircumflex" unicode="&#xd4;" horiz-adv-x="571" 
d="M292 690c32.667 0 63.166 -4.66699 91.499 -14s53 -22.833 74 -40.5s37.667 -39.334 50 -65.001s18.5 -54.834 18.5 -87.501v-285c0 -34 -6 -63.833 -18 -89.5s-28.5 -47.334 -49.5 -65.001s-45.667 -31 -74 -40s-59.166 -13.5 -92.499 -13.5h-13
c-34 0 -65.333 4.33301 -94 13s-53.5 21.834 -74.5 39.501s-37.333 39.5 -49 65.5s-17.5 56 -17.5 90v285c0 32 6.16699 60.833 18.5 86.5s29 47.334 50 65.001s45.667 31.334 74 41.001s58.833 14.5 91.5 14.5h14v0zM401.999 482c0 31.333 -10.499 55.5 -31.499 72.5
s-47.167 25.5 -78.5 25.5h-14c-31.333 0 -57.5 -8.33301 -78.5 -25s-31.5 -40.667 -31.5 -72v-285c0 -34 10.167 -58.833 30.5 -74.5s47.166 -23.5 80.499 -23.5h13c34 0 60.833 7.83301 80.5 23.5s29.5 40.5 29.5 74.5v284zM273 909l116 -102l-41 -60l-75 55l-73 -55
l-41 63z" />
    <glyph glyph-name="Otilde" unicode="&#xd5;" horiz-adv-x="571" 
d="M292 690c32.667 0 63.166 -4.66699 91.499 -14s53 -22.833 74 -40.5s37.667 -39.334 50 -65.001s18.5 -54.834 18.5 -87.501v-285c0 -34 -6 -63.833 -18 -89.5s-28.5 -47.334 -49.5 -65.001s-45.667 -31 -74 -40s-59.166 -13.5 -92.499 -13.5h-13
c-34 0 -65.333 4.33301 -94 13s-53.5 21.834 -74.5 39.501s-37.333 39.5 -49 65.5s-17.5 56 -17.5 90v285c0 32 6.16699 60.833 18.5 86.5s29 47.334 50 65.001s45.667 31.334 74 41.001s58.833 14.5 91.5 14.5h14v0zM401.999 482c0 31.333 -10.499 55.5 -31.499 72.5
s-47.167 25.5 -78.5 25.5h-14c-31.333 0 -57.5 -8.33301 -78.5 -25s-31.5 -40.667 -31.5 -72v-285c0 -34 10.167 -58.833 30.5 -74.5s47.166 -23.5 80.499 -23.5h13c34 0 60.833 7.83301 80.5 23.5s29.5 40.5 29.5 74.5v284zM217 790
c-6 0 -12.9941 -3.66992 -20.9941 -11.0029s-15 -17.666 -21 -30.999l-47 42c15.333 28.667 29.666 49.834 42.999 63.501s30.666 20.5 51.999 20.5c11.333 0 22.166 -2 32.499 -6s20 -8.16699 29 -12.5s17.167 -8.5 24.5 -12.5s13.333 -6 18 -6
c12.667 0 21.5 4.83301 26.5 14.5l13.5 26.5l52 -35c-2.66699 -12 -6.33398 -23.5 -11.001 -34.5s-10.334 -20.667 -17.001 -29s-14.334 -15.166 -23.001 -20.499s-18.667 -8 -30 -8c-12.667 0 -24.167 2 -34.5 6s-20 8.5 -29 13.5s-18 9.5 -27 13.5s-19.167 6 -30.5 6z" />
    <glyph glyph-name="Odieresis" unicode="&#xd6;" horiz-adv-x="571" 
d="M292 690c32.667 0 63.166 -4.66699 91.499 -14s53 -22.833 74 -40.5s37.667 -39.334 50 -65.001s18.5 -54.834 18.5 -87.501v-285c0 -34 -6 -63.833 -18 -89.5s-28.5 -47.334 -49.5 -65.001s-45.667 -31 -74 -40s-59.166 -13.5 -92.499 -13.5h-13
c-34 0 -65.333 4.33301 -94 13s-53.5 21.834 -74.5 39.501s-37.333 39.5 -49 65.5s-17.5 56 -17.5 90v285c0 32 6.16699 60.833 18.5 86.5s29 47.334 50 65.001s45.667 31.334 74 41.001s58.833 14.5 91.5 14.5h14v0zM401.999 482c0 31.333 -10.499 55.5 -31.499 72.5
s-47.167 25.5 -78.5 25.5h-14c-31.333 0 -57.5 -8.33301 -78.5 -25s-31.5 -40.667 -31.5 -72v-285c0 -34 10.167 -58.833 30.5 -74.5s47.166 -23.5 80.499 -23.5h13c34 0 60.833 7.83301 80.5 23.5s29.5 40.5 29.5 74.5v284zM244 762h-107v107h107v-107zM410 762h-106v107
h106v-107z" />
    <glyph glyph-name="multiply" unicode="&#xd7;" horiz-adv-x="513" 
d="M471 490l-162 -242l167 -248h-107l-112 171l-113 -171h-107l168 248l-162 242h101l113 -166l112 166h102z" />
    <glyph glyph-name="Oslash" unicode="&#xd8;" horiz-adv-x="535" 
d="M292 690c16.667 0 33 -1.33203 49 -3.99902s31 -6.33398 45 -11.001l37 88h85l-51 -128c21.333 -17.333 38.166 -38.833 50.499 -64.5s18.5 -54.834 18.5 -87.501v-285c0 -34 -6 -63.833 -18 -89.5s-28.5 -47.334 -49.5 -65.001s-45.667 -31 -74 -40
s-59.166 -13.5 -92.499 -13.5h-13c-30 0 -57 3.33301 -81 10l-28 -71h-89l42 104c-25.333 17.333 -44.833 39.833 -58.5 67.5s-20.5 60.167 -20.5 97.5v285c0 32 6.16699 60.833 18.5 86.5s29 47.334 50 65.001s45.667 31.334 74 41.001s58.833 14.5 91.5 14.5h14v0z
M168 198.001c0 -14 1.66602 -27.667 4.99902 -41l171 413c-15.333 6.66699 -32.666 10 -51.999 10h-14c-31.333 0 -57.5 -8.33301 -78.5 -25s-31.5 -40.667 -31.5 -72v-285v0zM401.999 482.001c0 3.33301 0.167969 6.66699 0.500977 10s0.166016 7 -0.500977 11l-162 -399
c10.667 -2.66699 23.667 -4 39 -4h13c34 0 60.833 7.83301 80.5 23.5s29.5 40.5 29.5 74.5v284z" />
    <glyph glyph-name="Ugrave" unicode="&#xd9;" horiz-adv-x="604" 
d="M415 680h124.002v-475c0 -35.333 -5.83301 -66.333 -17.5 -93s-27.834 -49 -48.501 -67s-45.5 -31.667 -74.5 -41s-61.167 -14 -96.5 -14s-67.5 4.5 -96.5 13.5s-54 22.5 -75 40.5s-37.167 40.5 -48.5 67.5s-17 58.167 -17 93.5v475h124v-475
c0 -36 9.83301 -62.5 29.5 -79.5s47.167 -25.5 82.5 -25.5s63.166 8.5 83.499 25.5s30.5 43.5 30.5 79.5v475zM261.002 926l86 -163l-60 -50l-102 150z" />
    <glyph glyph-name="Uacute" unicode="&#xda;" horiz-adv-x="604" 
d="M415 680h124.002v-475c0 -35.333 -5.83301 -66.333 -17.5 -93s-27.834 -49 -48.501 -67s-45.5 -31.667 -74.5 -41s-61.167 -14 -96.5 -14s-67.5 4.5 -96.5 13.5s-54 22.5 -75 40.5s-37.167 40.5 -48.5 67.5s-17 58.167 -17 93.5v475h124v-475
c0 -36 9.83301 -62.5 29.5 -79.5s47.167 -25.5 82.5 -25.5s63.166 8.5 83.499 25.5s30.5 43.5 30.5 79.5v475zM317.002 911l75 -51l-105 -152l-59 46z" />
    <glyph glyph-name="Ucircumflex" unicode="&#xdb;" horiz-adv-x="604" 
d="M415 680h124.002v-475c0 -35.333 -5.83301 -66.333 -17.5 -93s-27.834 -49 -48.501 -67s-45.5 -31.667 -74.5 -41s-61.167 -14 -96.5 -14s-67.5 4.5 -96.5 13.5s-54 22.5 -75 40.5s-37.167 40.5 -48.5 67.5s-17 58.167 -17 93.5v475h124v-475
c0 -36 9.83301 -62.5 29.5 -79.5s47.167 -25.5 82.5 -25.5s63.166 8.5 83.499 25.5s30.5 43.5 30.5 79.5v475zM287.002 902l116 -102l-41 -60l-75 55l-73 -55l-41 63z" />
    <glyph glyph-name="Udieresis" unicode="&#xdc;" horiz-adv-x="604" 
d="M415 680h124.002v-475c0 -35.333 -5.83301 -66.333 -17.5 -93s-27.834 -49 -48.501 -67s-45.5 -31.667 -74.5 -41s-61.167 -14 -96.5 -14s-67.5 4.5 -96.5 13.5s-54 22.5 -75 40.5s-37.167 40.5 -48.5 67.5s-17 58.167 -17 93.5v475h124v-475
c0 -36 9.83301 -62.5 29.5 -79.5s47.167 -25.5 82.5 -25.5s63.166 8.5 83.499 25.5s30.5 43.5 30.5 79.5v475zM258.002 763h-107v107h107v-107zM424.002 763h-106v107h106v-107z" />
    <glyph glyph-name="Yacute" unicode="&#xdd;" horiz-adv-x="556" 
d="M211 269l-195 411h134l123 -285l126 285h134l-198 -412v-268h-124v269zM301 912l75 -51l-105 -152l-59 46z" />
    <glyph glyph-name="Thorn" unicode="&#xde;" horiz-adv-x="452" 
d="M240 551c58.667 0 102.5 -15.167 131.5 -45.5s43.5 -74.833 43.5 -133.5v-44c0 -58 -15 -100.5 -45 -127.5s-73.333 -40.5 -130 -40.5h-79v-160h-124v680h124v-129h79zM291 372c0 19.333 -4.66699 36 -14 50s-24 21 -44 21h-72v-175h73c38 0 57 20 57 60v44z" />
    <glyph glyph-name="agrave" unicode="&#xe0;" 
d="M227 500c58 0 100.668 -13.166 128.001 -39.499s41 -68.5 41 -126.5v-334h-93l-11 68c-14 -20.667 -31.167 -38.5 -51.5 -53.5s-42.166 -22.5 -65.499 -22.5c-48 0 -83 11.167 -105 33.5s-33 57.5 -33 105.5v127l239 50v26c0 23.333 -4.5 39.333 -13.5 48
s-25.167 13 -48.5 13c-8.66699 0 -18.834 -1.66699 -30.501 -5s-23.334 -7.5 -35.001 -12.5s-22.667 -10.333 -33 -16s-18.833 -11.167 -25.5 -16.5l-43 86c11.333 8.66699 24.333 17.167 39 25.5s30 15.666 46 21.999s32.167 11.5 48.5 15.5s31.833 6 46.5 6z
M273.001 225.001l-112 -26v-63c0 -17.333 3.66699 -28.333 11 -33s19.333 -7 36 -7c17.333 0 32.5 5.66699 45.5 17s19.5 26 19.5 44v68zM182.001 757.001l86 -163l-60 -50l-102 150z" />
    <glyph glyph-name="aacute" unicode="&#xe1;" 
d="M227 500c58 0 100.668 -13.166 128.001 -39.499s41 -68.5 41 -126.5v-334h-93l-11 68c-14 -20.667 -31.167 -38.5 -51.5 -53.5s-42.166 -22.5 -65.499 -22.5c-48 0 -83 11.167 -105 33.5s-33 57.5 -33 105.5v127l239 50v26c0 23.333 -4.5 39.333 -13.5 48
s-25.167 13 -48.5 13c-8.66699 0 -18.834 -1.66699 -30.501 -5s-23.334 -7.5 -35.001 -12.5s-22.667 -10.333 -33 -16s-18.833 -11.167 -25.5 -16.5l-43 86c11.333 8.66699 24.333 17.167 39 25.5s30 15.666 46 21.999s32.167 11.5 48.5 15.5s31.833 6 46.5 6z
M273.001 225.001l-112 -26v-63c0 -17.333 3.66699 -28.333 11 -33s19.333 -7 36 -7c17.333 0 32.5 5.66699 45.5 17s19.5 26 19.5 44v68zM238.001 741.001l75 -51l-105 -152l-59 46z" />
    <glyph glyph-name="acircumflex" unicode="&#xe2;" 
d="M227 500c58 0 100.668 -13.166 128.001 -39.499s41 -68.5 41 -126.5v-334h-93l-11 68c-14 -20.667 -31.167 -38.5 -51.5 -53.5s-42.166 -22.5 -65.499 -22.5c-48 0 -83 11.167 -105 33.5s-33 57.5 -33 105.5v127l239 50v26c0 23.333 -4.5 39.333 -13.5 48
s-25.167 13 -48.5 13c-8.66699 0 -18.834 -1.66699 -30.501 -5s-23.334 -7.5 -35.001 -12.5s-22.667 -10.333 -33 -16s-18.833 -11.167 -25.5 -16.5l-43 86c11.333 8.66699 24.333 17.167 39 25.5s30 15.666 46 21.999s32.167 11.5 48.5 15.5s31.833 6 46.5 6z
M273.001 225.001l-112 -26v-63c0 -17.333 3.66699 -28.333 11 -33s19.333 -7 36 -7c17.333 0 32.5 5.66699 45.5 17s19.5 26 19.5 44v68zM208.001 721.001l116 -102l-41 -60l-75 55l-73 -55l-41 63z" />
    <glyph glyph-name="atilde" unicode="&#xe3;" 
d="M227 500c58 0 100.668 -13.166 128.001 -39.499s41 -68.5 41 -126.5v-334h-93l-11 68c-14 -20.667 -31.167 -38.5 -51.5 -53.5s-42.166 -22.5 -65.499 -22.5c-48 0 -83 11.167 -105 33.5s-33 57.5 -33 105.5v127l239 50v26c0 23.333 -4.5 39.333 -13.5 48
s-25.167 13 -48.5 13c-8.66699 0 -18.834 -1.66699 -30.501 -5s-23.334 -7.5 -35.001 -12.5s-22.667 -10.333 -33 -16s-18.833 -11.167 -25.5 -16.5l-43 86c11.333 8.66699 24.333 17.167 39 25.5s30 15.666 46 21.999s32.167 11.5 48.5 15.5s31.833 6 46.5 6z
M273.001 225.001l-112 -26v-63c0 -17.333 3.66699 -28.333 11 -33s19.333 -7 36 -7c17.333 0 32.5 5.66699 45.5 17s19.5 26 19.5 44v68zM153.001 620.001c-6 0 -12.9941 -3.66992 -20.9941 -11.0029s-15 -17.666 -21 -30.999l-47 42
c15.333 28.667 29.666 49.834 42.999 63.501s30.666 20.5 51.999 20.5c11.333 0 22.166 -2 32.499 -6s20 -8.16699 29 -12.5s17.167 -8.5 24.5 -12.5s13.333 -6 18 -6c12.667 0 21.5 4.83301 26.5 14.5l13.5 26.5l52 -35c-2.66699 -12 -6.33398 -23.5 -11.001 -34.5
s-10.334 -20.667 -17.001 -29s-14.334 -15.166 -23.001 -20.499s-18.667 -8 -30 -8c-12.667 0 -24.167 2 -34.5 6s-20 8.5 -29 13.5s-18 9.5 -27 13.5s-19.167 6 -30.5 6z" />
    <glyph glyph-name="adieresis" unicode="&#xe4;" 
d="M227 500c58 0 100.668 -13.166 128.001 -39.499s41 -68.5 41 -126.5v-334h-93l-11 68c-14 -20.667 -31.167 -38.5 -51.5 -53.5s-42.166 -22.5 -65.499 -22.5c-48 0 -83 11.167 -105 33.5s-33 57.5 -33 105.5v127l239 50v26c0 23.333 -4.5 39.333 -13.5 48
s-25.167 13 -48.5 13c-8.66699 0 -18.834 -1.66699 -30.501 -5s-23.334 -7.5 -35.001 -12.5s-22.667 -10.333 -33 -16s-18.833 -11.167 -25.5 -16.5l-43 86c11.333 8.66699 24.333 17.167 39 25.5s30 15.666 46 21.999s32.167 11.5 48.5 15.5s31.833 6 46.5 6z
M273.001 225.001l-112 -26v-63c0 -17.333 3.66699 -28.333 11 -33s19.333 -7 36 -7c17.333 0 32.5 5.66699 45.5 17s19.5 26 19.5 44v68zM180.001 584.001h-107v107h107v-107zM346.001 584.001h-106v107h106v-107z" />
    <glyph glyph-name="aring" unicode="&#xe5;" 
d="M227 500c58 0 100.668 -13.166 128.001 -39.499s41 -68.5 41 -126.5v-334h-93l-11 68c-14 -20.667 -31.167 -38.5 -51.5 -53.5s-42.166 -22.5 -65.499 -22.5c-48 0 -83 11.167 -105 33.5s-33 57.5 -33 105.5v127l239 50v26c0 23.333 -4.5 39.333 -13.5 48
s-25.167 13 -48.5 13c-8.66699 0 -18.834 -1.66699 -30.501 -5s-23.334 -7.5 -35.001 -12.5s-22.667 -10.333 -33 -16s-18.833 -11.167 -25.5 -16.5l-43 86c11.333 8.66699 24.333 17.167 39 25.5s30 15.666 46 21.999s32.167 11.5 48.5 15.5s31.833 6 46.5 6z
M273.001 225.001l-112 -26v-63c0 -17.333 3.66699 -28.333 11 -33s19.333 -7 36 -7c17.333 0 32.5 5.66699 45.5 17s19.5 26 19.5 44v68zM214.001 557.001c-25.333 0 -44.5 7.66895 -57.5 23.002s-19.5 33.666 -19.5 54.999c0 28 8 47.833 24 59.5s33.667 17.5 53 17.5
c26 0 45.167 -7.33301 57.5 -22s18.5 -33 18.5 -55c0 -26.667 -7.66699 -46.334 -23 -59.001s-33 -19 -53 -19zM185.001 635.003c0 -10 0.998047 -17.499 2.99805 -22.499s4.5 -8.5 7.5 -10.5s6.16699 -3.16699 9.5 -3.5s6.33301 -0.5 9 -0.5
c8.66699 0 16.334 1.83301 23.001 5.5s10 14.167 10 31.5c0 10 -1.16699 17.667 -3.5 23s-5.16602 9.16602 -8.49902 11.499s-6.83301 3.66602 -10.5 3.99902s-7.16699 0.5 -10.5 0.5c-6.66699 0 -13.167 -2.16699 -19.5 -6.5s-9.5 -15.166 -9.5 -32.499z" />
    <glyph glyph-name="ae" unicode="&#xe6;" horiz-adv-x="688" 
d="M482 96c21.333 0 39.8271 5.50195 55.4941 16.502s32.167 25.5 49.5 43.5l64 -81c-26 -28 -52.5 -48.833 -79.5 -62.5s-59.167 -20.5 -96.5 -20.5c-46 0 -83.833 6.66699 -113.5 20s-51.5 35.666 -65.5 66.999c-8.66699 -18 -18.167 -32.667 -28.5 -44
s-21 -20.166 -32 -26.499s-22.167 -10.5 -33.5 -12.5s-22.333 -3 -33 -3c-48 0 -82 11.167 -102 33.5s-30 57.5 -30 105.5v117l236 39v49c0 23.333 -4.33301 39.666 -13 48.999s-25 14 -49 14c-8.66699 0 -18.834 -1.66699 -30.501 -5s-23.167 -7.5 -34.5 -12.5
s-22.166 -10.333 -32.499 -16s-18.833 -11.167 -25.5 -16.5l-43 86c11.333 8.66699 24.333 17.167 39 25.5s30.334 15.666 47.001 21.999s33.334 11.5 50.001 15.5s32.334 6 47.001 6c28 0 51.333 -3.83301 70 -11.5s33.667 -20.5 45 -38.5c14.667 14 31.834 25 51.501 33
s42.5 12 68.5 12s50 -4 72 -12s40.833 -19.333 56.5 -34s27.834 -32.5 36.501 -53.5s13 -44.5 13 -70.5v-74l-246 -38v-47c0 -24 8.33301 -42.5 25 -55.5s37.334 -19.5 62.001 -19.5zM463.994 389.002c-21.333 0 -38.167 -4.83301 -50.5 -14.5s-18.5 -24.5 -18.5 -44.5v-31
l124 16v13c0 19.333 -4.33301 34.333 -13 45s-22.667 16 -42 16zM273.993 205.002l-115.999 -18.999v-48c0 -16.667 3.66699 -27.334 11 -32.001s19.666 -7 36.999 -7s33 5.5 47 16.5s21 25.833 21 44.5v45z" />
    <glyph glyph-name="ccedilla" unicode="&#xe7;" horiz-adv-x="464" 
d="M219 390c-40.667 0 -60.999 -20.3301 -60.999 -60.9971v-168c0 -22 5.83301 -37.667 17.5 -47s28.5 -14 50.5 -14c18 0 34.333 3.16699 49 9.5s28 17.166 40 32.499l73 -77c-24.667 -26 -49.834 -45 -75.501 -57s-56.5 -18 -92.5 -18c-56 0 -100.5 14.5 -133.5 43.5
s-49.5 71.5 -49.5 127.5v168c0 26 4.5 49.5 13.5 70.5s21.5 39 37.5 54s35.167 26.5 57.5 34.5s46.833 12 73.5 12c37.333 0 69.333 -5.83301 96 -17.5s51.667 -33.834 75 -66.501l-78 -77c-12.667 15.333 -26.667 27.666 -42 36.999s-32.333 14 -51 14zM286.001 14.0029
l-11.002 -59.002c6 -3.33301 12.667 -7.33301 20 -12s14.5 -10.834 21.5 -18.501s12.833 -17 17.5 -28s7 -24.167 7 -39.5c0 -17.333 -3 -32.166 -9 -44.499s-14.5 -23.333 -25.5 -33s-24.167 -18.167 -39.5 -25.5s-32.666 -15 -51.999 -23l-32 66
c12.667 6.66699 24.834 13.834 36.501 21.501s17.5 20.167 17.5 37.5c0 10 -1 18.333 -3 25s-5.16699 12.167 -9.5 16.5s-10 7.83301 -17 10.5s-15.5 5.33398 -25.5 8.00098l16 98h88z" />
    <glyph glyph-name="egrave" unicode="&#xe8;" horiz-adv-x="445" 
d="M246 100c21.333 0 39.832 4.66895 55.499 14.002s32.167 22.666 49.5 39.999l64 -79c-26 -28 -52.5 -49.167 -79.5 -63.5s-59.167 -21.5 -96.5 -21.5c-64.667 0 -114.5 13.667 -149.5 41s-52.5 73.333 -52.5 138v161c0 56.667 17.167 99.167 51.5 127.5
s80.5 42.5 138.5 42.5c26 0 50 -4 72 -12s40.833 -19.333 56.5 -34s27.834 -32.667 36.501 -54s13 -45 13 -71v-90l-247 -44v-26c0 -24.667 8.5 -42.334 25.5 -53.001s37.833 -16 62.5 -16zM227.999 389.002c-21.333 0 -38.333 -4.83301 -51 -14.5s-19 -24.5 -19 -44.5v-54
l125 22v29c0 19.333 -4.33301 34.5 -13 45.5s-22.667 16.5 -42 16.5zM192.999 746.002l86 -163l-60 -50l-102 150z" />
    <glyph glyph-name="eacute" unicode="&#xe9;" horiz-adv-x="445" 
d="M246 100c21.333 0 39.832 4.66895 55.499 14.002s32.167 22.666 49.5 39.999l64 -79c-26 -28 -52.5 -49.167 -79.5 -63.5s-59.167 -21.5 -96.5 -21.5c-64.667 0 -114.5 13.667 -149.5 41s-52.5 73.333 -52.5 138v161c0 56.667 17.167 99.167 51.5 127.5
s80.5 42.5 138.5 42.5c26 0 50 -4 72 -12s40.833 -19.333 56.5 -34s27.834 -32.667 36.501 -54s13 -45 13 -71v-90l-247 -44v-26c0 -24.667 8.5 -42.334 25.5 -53.001s37.833 -16 62.5 -16zM227.999 389.002c-21.333 0 -38.333 -4.83301 -51 -14.5s-19 -24.5 -19 -44.5v-54
l125 22v29c0 19.333 -4.33301 34.5 -13 45.5s-22.667 16.5 -42 16.5zM249.999 741.002l75 -51l-105 -152l-59 46z" />
    <glyph glyph-name="ecircumflex" unicode="&#xea;" horiz-adv-x="445" 
d="M246 100c21.333 0 39.832 4.66895 55.499 14.002s32.167 22.666 49.5 39.999l64 -79c-26 -28 -52.5 -49.167 -79.5 -63.5s-59.167 -21.5 -96.5 -21.5c-64.667 0 -114.5 13.667 -149.5 41s-52.5 73.333 -52.5 138v161c0 56.667 17.167 99.167 51.5 127.5
s80.5 42.5 138.5 42.5c26 0 50 -4 72 -12s40.833 -19.333 56.5 -34s27.834 -32.667 36.501 -54s13 -45 13 -71v-90l-247 -44v-26c0 -24.667 8.5 -42.334 25.5 -53.001s37.833 -16 62.5 -16zM227.999 389.002c-21.333 0 -38.333 -4.83301 -51 -14.5s-19 -24.5 -19 -44.5v-54
l125 22v29c0 19.333 -4.33301 34.5 -13 45.5s-22.667 16.5 -42 16.5zM217.999 720.002l116 -102l-41 -60l-75 55l-73 -55l-41 63z" />
    <glyph glyph-name="edieresis" unicode="&#xeb;" horiz-adv-x="445" 
d="M246 100c21.333 0 39.832 4.66895 55.499 14.002s32.167 22.666 49.5 39.999l64 -79c-26 -28 -52.5 -49.167 -79.5 -63.5s-59.167 -21.5 -96.5 -21.5c-64.667 0 -114.5 13.667 -149.5 41s-52.5 73.333 -52.5 138v161c0 56.667 17.167 99.167 51.5 127.5
s80.5 42.5 138.5 42.5c26 0 50 -4 72 -12s40.833 -19.333 56.5 -34s27.834 -32.667 36.501 -54s13 -45 13 -71v-90l-247 -44v-26c0 -24.667 8.5 -42.334 25.5 -53.001s37.833 -16 62.5 -16zM227.999 389.002c-21.333 0 -38.333 -4.83301 -51 -14.5s-19 -24.5 -19 -44.5v-54
l125 22v29c0 19.333 -4.33301 34.5 -13 45.5s-22.667 16.5 -42 16.5zM188.999 576.002h-107v107h107v-107zM354.999 576.002h-106v107h106v-107z" />
    <glyph glyph-name="igrave" unicode="&#xec;" horiz-adv-x="260" 
d="M75 490h120v-490h-120v490zM100 756l86 -163l-60 -50l-102 150z" />
    <glyph glyph-name="iacute" unicode="&#xed;" horiz-adv-x="260" 
d="M76 490h120v-490h-120v490zM155 741l75 -51l-105 -152l-59 46z" />
    <glyph glyph-name="icircumflex" unicode="&#xee;" horiz-adv-x="260" 
d="M61 490h120v-490h-120v490zM121 729l116 -102l-41 -60l-75 55l-73 -55l-41 63z" />
    <glyph glyph-name="idieresis" unicode="&#xef;" horiz-adv-x="260" 
d="M89 490h120v-490h-120v490zM109 584h-107v107h107v-107zM275 584h-106v107h106v-107z" />
    <glyph glyph-name="eth" unicode="&#xf0;" horiz-adv-x="456" 
d="M366 735l31 -74.998l-83 -46c32.667 -42.667 58.334 -85.5 77.001 -128.5s28 -90.833 28 -143.5v-177c0 -28.667 -5 -53.834 -15 -75.501s-23.833 -39.667 -41.5 -54s-38.5 -25 -62.5 -32s-50 -10.5 -78 -10.5c-56.667 0 -101.667 14.333 -135 43s-50 71.667 -50 129v135
c0 48 12.333 86 37 114s61.334 42.667 110.001 44c15.333 0 31.166 -2.33301 47.499 -7s31.833 -10.334 46.5 -17.001c-16.667 45.333 -41.334 86.333 -74.001 123l-115 -62l-31 73l82 45c-13.333 9.33301 -26.333 17 -39 23s-26.667 11.333 -42 16l44 103
c30.667 -9.33301 57.5 -20 80.5 -32s46.833 -28.333 71.5 -49zM295 268.002c0 53.333 -25.332 80 -75.999 80c-21.333 0 -36.333 -5 -45 -15s-13 -25 -13 -45v-123c0 -21.333 4.83301 -37 14.5 -47s25.167 -15 46.5 -15s38.166 4.83301 50.499 14.5s19.833 25.167 22.5 46.5
v104z" />
    <glyph glyph-name="ntilde" unicode="&#xf1;" horiz-adv-x="495" 
d="M293 501c56 0 95 -14.167 117 -42.5s33 -70.833 33 -127.5v-331h-124v310c0 22.667 -3.83301 42 -11.5 58s-22.834 24 -45.501 24c-12 0 -22.833 -2.83301 -32.5 -8.5s-18 -13.167 -25 -22.5s-12.5 -19.833 -16.5 -31.5s-6 -23.5 -6 -35.5v-294h-124v490h111l10 -51
c14 21.333 29.833 37 47.5 47s39.834 15 66.501 15zM181 620c-6 0 -12.9941 -3.66992 -20.9941 -11.0029s-15 -17.666 -21 -30.999l-47 42c15.333 28.667 29.666 49.834 42.999 63.501s30.666 20.5 51.999 20.5c11.333 0 22.166 -2 32.499 -6s20 -8.16699 29 -12.5
s17.167 -8.5 24.5 -12.5s13.333 -6 18 -6c12.667 0 21.5 4.83301 26.5 14.5l13.5 26.5l52 -35c-2.66699 -12 -6.33398 -23.5 -11.001 -34.5s-10.334 -20.667 -17.001 -29s-14.334 -15.166 -23.001 -20.499s-18.667 -8 -30 -8c-12.667 0 -24.167 2 -34.5 6s-20 8.5 -29 13.5
s-18 9.5 -27 13.5s-19.167 6 -30.5 6z" />
    <glyph glyph-name="ograve" unicode="&#xf2;" horiz-adv-x="459" 
d="M231 500c26 0 50.668 -3.66797 74.001 -11.001s43.833 -18.333 61.5 -33s31.5 -32.5 41.5 -53.5s15 -45.5 15 -73.5v-167c0 -28 -4.83301 -52.667 -14.5 -74s-23 -39.166 -40 -53.499s-37 -25.333 -60 -33s-48.167 -11.5 -75.5 -11.5c-28 0 -54 3.66699 -78 11
s-44.833 18.333 -62.5 33s-31.334 32.667 -41.001 54s-14.5 46 -14.5 74v167c0 28 5 52.5 15 73.5s23.667 38.833 41 53.5s37.833 25.667 61.5 33s49.167 11 76.5 11zM299.001 329.999c0 25.333 -5.16504 41.668 -15.498 49.001s-27.833 11 -52.5 11
c-22.667 0 -40 -4.83301 -52 -14.5s-18 -25.167 -18 -46.5v-166c0 -26.667 5.16699 -43.834 15.5 -51.501s29.166 -11.5 56.499 -11.5c21.333 0 37.666 4.66699 48.999 14s17 25.333 17 48v168zM194.003 746.001l86 -163l-60 -50l-102 150z" />
    <glyph glyph-name="oacute" unicode="&#xf3;" horiz-adv-x="459" 
d="M231 500c26 0 50.668 -3.66797 74.001 -11.001s43.833 -18.333 61.5 -33s31.5 -32.5 41.5 -53.5s15 -45.5 15 -73.5v-167c0 -28 -4.83301 -52.667 -14.5 -74s-23 -39.166 -40 -53.499s-37 -25.333 -60 -33s-48.167 -11.5 -75.5 -11.5c-28 0 -54 3.66699 -78 11
s-44.833 18.333 -62.5 33s-31.334 32.667 -41.001 54s-14.5 46 -14.5 74v167c0 28 5 52.5 15 73.5s23.667 38.833 41 53.5s37.833 25.667 61.5 33s49.167 11 76.5 11zM299.001 329.999c0 25.333 -5.16504 41.668 -15.498 49.001s-27.833 11 -52.5 11
c-22.667 0 -40 -4.83301 -52 -14.5s-18 -25.167 -18 -46.5v-166c0 -26.667 5.16699 -43.834 15.5 -51.501s29.166 -11.5 56.499 -11.5c21.333 0 37.666 4.66699 48.999 14s17 25.333 17 48v168zM250.003 741.001l75 -51l-105 -152l-59 46z" />
    <glyph glyph-name="ocircumflex" unicode="&#xf4;" horiz-adv-x="459" 
d="M231 500c26 0 50.668 -3.66797 74.001 -11.001s43.833 -18.333 61.5 -33s31.5 -32.5 41.5 -53.5s15 -45.5 15 -73.5v-167c0 -28 -4.83301 -52.667 -14.5 -74s-23 -39.166 -40 -53.499s-37 -25.333 -60 -33s-48.167 -11.5 -75.5 -11.5c-28 0 -54 3.66699 -78 11
s-44.833 18.333 -62.5 33s-31.334 32.667 -41.001 54s-14.5 46 -14.5 74v167c0 28 5 52.5 15 73.5s23.667 38.833 41 53.5s37.833 25.667 61.5 33s49.167 11 76.5 11zM299.001 329.999c0 25.333 -5.16504 41.668 -15.498 49.001s-27.833 11 -52.5 11
c-22.667 0 -40 -4.83301 -52 -14.5s-18 -25.167 -18 -46.5v-166c0 -26.667 5.16699 -43.834 15.5 -51.501s29.166 -11.5 56.499 -11.5c21.333 0 37.666 4.66699 48.999 14s17 25.333 17 48v168zM219.003 720.001l116 -102l-41 -60l-75 55l-73 -55l-41 63z" />
    <glyph glyph-name="otilde" unicode="&#xf5;" horiz-adv-x="459" 
d="M231 500c26 0 50.668 -3.66797 74.001 -11.001s43.833 -18.333 61.5 -33s31.5 -32.5 41.5 -53.5s15 -45.5 15 -73.5v-167c0 -28 -4.83301 -52.667 -14.5 -74s-23 -39.166 -40 -53.499s-37 -25.333 -60 -33s-48.167 -11.5 -75.5 -11.5c-28 0 -54 3.66699 -78 11
s-44.833 18.333 -62.5 33s-31.334 32.667 -41.001 54s-14.5 46 -14.5 74v167c0 28 5 52.5 15 73.5s23.667 38.833 41 53.5s37.833 25.667 61.5 33s49.167 11 76.5 11zM299.001 329.999c0 25.333 -5.16504 41.668 -15.498 49.001s-27.833 11 -52.5 11
c-22.667 0 -40 -4.83301 -52 -14.5s-18 -25.167 -18 -46.5v-166c0 -26.667 5.16699 -43.834 15.5 -51.501s29.166 -11.5 56.499 -11.5c21.333 0 37.666 4.66699 48.999 14s17 25.333 17 48v168zM163.003 601.001c-6 0 -12.9941 -3.66992 -20.9941 -11.0029
s-15 -17.666 -21 -30.999l-47 42c15.333 28.667 29.666 49.834 42.999 63.501s30.666 20.5 51.999 20.5c11.333 0 22.166 -2 32.499 -6s20 -8.16699 29 -12.5s17.167 -8.5 24.5 -12.5s13.333 -6 18 -6c12.667 0 21.5 4.83301 26.5 14.5l13.5 26.5l52 -35
c-2.66699 -12 -6.33398 -23.5 -11.001 -34.5s-10.334 -20.667 -17.001 -29s-14.334 -15.166 -23.001 -20.499s-18.667 -8 -30 -8c-12.667 0 -24.167 2 -34.5 6s-20 8.5 -29 13.5s-18 9.5 -27 13.5s-19.167 6 -30.5 6z" />
    <glyph glyph-name="odieresis" unicode="&#xf6;" horiz-adv-x="459" 
d="M231 500c26 0 50.668 -3.66797 74.001 -11.001s43.833 -18.333 61.5 -33s31.5 -32.5 41.5 -53.5s15 -45.5 15 -73.5v-167c0 -28 -4.83301 -52.667 -14.5 -74s-23 -39.166 -40 -53.499s-37 -25.333 -60 -33s-48.167 -11.5 -75.5 -11.5c-28 0 -54 3.66699 -78 11
s-44.833 18.333 -62.5 33s-31.334 32.667 -41.001 54s-14.5 46 -14.5 74v167c0 28 5 52.5 15 73.5s23.667 38.833 41 53.5s37.833 25.667 61.5 33s49.167 11 76.5 11zM299.001 329.999c0 25.333 -5.16504 41.668 -15.498 49.001s-27.833 11 -52.5 11
c-22.667 0 -40 -4.83301 -52 -14.5s-18 -25.167 -18 -46.5v-166c0 -26.667 5.16699 -43.834 15.5 -51.501s29.166 -11.5 56.499 -11.5c21.333 0 37.666 4.66699 48.999 14s17 25.333 17 48v168zM190.003 574.001h-107v107h107v-107zM356.003 574.001h-106v107h106v-107z" />
    <glyph glyph-name="divide" unicode="&#xf7;" horiz-adv-x="586" 
d="M37 319h512v-92h-512v92zM232 176h131v-130h-131v130zM363 366h-131v130h131v-130z" />
    <glyph glyph-name="oslash" unicode="&#xf8;" horiz-adv-x="443" 
d="M70 -76l37.999 97.999c-21.333 14 -38.5 32.667 -51.5 56s-19.5 51.333 -19.5 84v167c0 28 5 52.5 15 73.5s23.667 38.833 41 53.5s37.833 25.667 61.5 33s49.167 11 76.5 11c22.667 0 44.334 -3 65.001 -9l25 60h61l-33 -82c22.667 -15.333 40.667 -34.5 54 -57.5
s20 -50.5 20 -82.5v-167c0 -28 -4.83301 -52.667 -14.5 -74s-23 -39.166 -40 -53.499s-37 -25.333 -60 -33s-48.167 -11.5 -75.5 -11.5c-12.667 0 -24.5 0.666992 -35.5 2s-21.833 3.33301 -32.5 6l-29 -74h-66zM160.999 162.999
c0 -3.33301 -0.167969 -6.16699 -0.500977 -8.5s-0.5 -4.83301 -0.5 -7.5l96 242c-3.33301 0.666992 -7.16602 1 -11.499 1h-13.5c-22.667 0 -40 -4.83301 -52 -14.5s-18 -25.167 -18 -46.5v-166v0zM298.998 329.998l0.000976562 8l-93 -236
c3.33301 -0.666992 7.33301 -1.16699 12 -1.5s9.66699 -0.5 15 -0.5c21.333 0 37.666 4.66699 48.999 14s17 25.333 17 48v168z" />
    <glyph glyph-name="ugrave" unicode="&#xf9;" horiz-adv-x="463" 
d="M288 490h123.999v-329c0 -56.667 -15.667 -99.334 -47 -128.001s-74.666 -43 -129.999 -43c-56.667 0 -100.5 14.333 -131.5 43s-46.5 71.334 -46.5 128.001v329h124v-329c0 -21.333 3.5 -36.833 10.5 -46.5s21.5 -14.5 43.5 -14.5c20.667 0 34.667 4.66699 42 14
s11 25 11 47v329zM195.999 746l86 -163l-60 -50l-102 150z" />
    <glyph glyph-name="uacute" unicode="&#xfa;" horiz-adv-x="463" 
d="M288 490h123.999v-329c0 -56.667 -15.667 -99.334 -47 -128.001s-74.666 -43 -129.999 -43c-56.667 0 -100.5 14.333 -131.5 43s-46.5 71.334 -46.5 128.001v329h124v-329c0 -21.333 3.5 -36.833 10.5 -46.5s21.5 -14.5 43.5 -14.5c20.667 0 34.667 4.66699 42 14
s11 25 11 47v329zM252.999 731l75 -51l-105 -152l-59 46z" />
    <glyph glyph-name="ucircumflex" unicode="&#xfb;" horiz-adv-x="463" 
d="M288 490h123.999v-329c0 -56.667 -15.667 -99.334 -47 -128.001s-74.666 -43 -129.999 -43c-56.667 0 -100.5 14.333 -131.5 43s-46.5 71.334 -46.5 128.001v329h124v-329c0 -21.333 3.5 -36.833 10.5 -46.5s21.5 -14.5 43.5 -14.5c20.667 0 34.667 4.66699 42 14
s11 25 11 47v329zM220.999 729l116 -102l-41 -60l-75 55l-73 -55l-41 63z" />
    <glyph glyph-name="udieresis" unicode="&#xfc;" horiz-adv-x="463" 
d="M288 490h123.999v-329c0 -56.667 -15.667 -99.334 -47 -128.001s-74.666 -43 -129.999 -43c-56.667 0 -100.5 14.333 -131.5 43s-46.5 71.334 -46.5 128.001v329h124v-329c0 -21.333 3.5 -36.833 10.5 -46.5s21.5 -14.5 43.5 -14.5c20.667 0 34.667 4.66699 42 14
s11 25 11 47v329zM192.999 593h-107v107h107v-107zM358.999 593h-106v107h106v-107z" />
    <glyph glyph-name="yacute" unicode="&#xfd;" horiz-adv-x="427" 
d="M155 -10l-140.001 499.997h126l74 -372l71 372h126l-159 -568c-13.333 -48 -38.5 -84.333 -75.5 -109s-82.167 -37.667 -135.5 -39l-13 93c10.667 0.666992 21.834 2.83398 33.501 6.50098s22.667 8.33398 33 14.001s19.333 12.334 27 20.001s13.167 16.167 16.5 25.5z
M240.999 730.997l75 -51l-105 -152l-59 46z" />
    <glyph glyph-name="thorn" unicode="&#xfe;" horiz-adv-x="479" 
d="M279 500c56.667 0 98 -12.999 124 -38.999s39 -67.333 39 -124v-178c0 -56.667 -13.333 -99.334 -40 -128.001s-68.334 -43 -125.001 -43c-19.333 0 -37.666 2.83301 -54.999 8.5s-32 15.5 -44 29.5v-267h-120v990h120v-286c14 11.333 29.5 20.333 46.5 27
s35.167 10 54.5 10zM320 311.001c0 26.667 -4.16504 46.5 -12.498 59.5s-25.5 19.5 -51.5 19.5c-22.667 0 -40.334 -5.66699 -53.001 -17s-19 -27.666 -19 -48.999v-108c0 -18.667 0.166992 -35.334 0.5 -50.001s2.66602 -27 6.99902 -37s11.5 -17.667 21.5 -23
s24.333 -8 43 -8c21.333 0 37.333 3.33301 48 10s16 21 16 43v160z" />
    <glyph glyph-name="ydieresis" unicode="&#xff;" horiz-adv-x="427" 
d="M155 -10l-140.001 499.997h126l74 -372l71 372h126l-159 -568c-13.333 -48 -38.5 -84.333 -75.5 -109s-82.167 -37.667 -135.5 -39l-13 93c10.667 0.666992 21.834 2.83398 33.501 6.50098s22.667 8.33398 33 14.001s19.333 12.334 27 20.001s13.167 16.167 16.5 25.5z
M179.999 592.997h-107v107h107v-107zM345.999 592.997h-106v107h106v-107z" />
    <glyph glyph-name="dotlessi" unicode="&#x131;" horiz-adv-x="257" 
d="M65 490h120v-490h-120v490z" />
    <glyph glyph-name="Lslash" unicode="&#x141;" horiz-adv-x="504" 
d="M247 680v-253l98 55l25 -66l-123 -70v-236h248v-110h-372v285l-91 -50l-23 66l114 63v316h124z" />
    <glyph glyph-name="lslash" unicode="&#x142;" horiz-adv-x="351" 
d="M47 273l-31 65l99 55v337h124v-288l72 41l31 -62l-103 -60v-361h-124v313z" />
    <glyph glyph-name="OE" unicode="&#x152;" horiz-adv-x="777" 
d="M509 296l0.00292969 -186h231v-110h-461c-34 0 -65.5 4.16699 -94.5 12.5s-53.833 21 -74.5 38s-36.834 38.667 -48.501 65s-17.5 57.5 -17.5 93.5v264c0 33.333 6.16699 63 18.5 89s29.166 47.667 50.499 65s46.166 30.5 74.499 39.5s58.5 13.5 90.5 13.5h444v-110h-213
v-169h180v-105h-180zM168.003 209c0 -36 10.168 -61.5 30.501 -76.5s47.166 -22.5 80.499 -22.5h107v460h-108c-33.333 0 -60 -9.83301 -80 -29.5s-30 -47.5 -30 -83.5v-248v0z" />
    <glyph glyph-name="oe" unicode="&#x153;" horiz-adv-x="711" 
d="M505 104c19.333 0 39.1689 6.33105 59.502 18.998s37.5 26.667 51.5 42l58 -81c-23.333 -24.667 -50.333 -44.667 -81 -60s-62.334 -23 -95.001 -23c-32 0 -60.833 4.83301 -86.5 14.5s-48.834 26.834 -69.501 51.501c-13.333 -21.333 -32.166 -38.166 -56.499 -50.499
s-48.833 -18.5 -73.5 -18.5c-56 0 -99.167 14.5 -129.5 43.5s-45.5 71.5 -45.5 127.5v165c0 54.667 15 96.167 45 124.5s72.667 42.5 128 42.5c12 0 24.333 -1.66699 37 -5s25.167 -7.66602 37.5 -12.999s23.833 -11.833 34.5 -19.5s19.667 -15.834 27 -24.501
c16 23.333 36.667 40 62 50s52.666 15 81.999 15c24 0 46.5 -4.33301 67.5 -13s39.333 -20.667 55 -36s28 -33.333 37 -54s13.5 -43 13.5 -67v-89l-247 -42v-24c0 -24 8.83301 -42.5 26.5 -55.5s38.5 -19.5 62.5 -19.5zM227.003 106.998c20 0 35.833 6.5 47.5 19.5
s18.5 30.167 20.5 51.5v147c-2 19.333 -9 36 -21 50s-27.667 21 -47 21c-22 0 -39 -5 -51 -15s-18 -25.667 -18 -47v-165c0 -22 6 -37.833 18 -47.5s29 -14.5 51 -14.5zM485.003 395.998c-21.333 -0.666992 -38.333 -7.5 -51 -20.5s-18.667 -29.5 -18 -49.5v-35l124 22l1 28
c0 16.667 -5 30 -15 40s-23.667 15 -41 15z" />
    <glyph glyph-name="Scaron" unicode="&#x160;" horiz-adv-x="524" 
d="M475 286l-0.00195312 -109c0 -30 -5.5 -56.5 -16.5 -79.5s-26 -42.333 -45 -58s-41.167 -27.5 -66.5 -35.5s-52.666 -12 -81.999 -12c-43.333 0 -84.666 8.66699 -123.999 26s-73.666 46 -102.999 86l94 74c11.333 -22 26.833 -40.167 46.5 -54.5
s46.167 -21.5 79.5 -21.5c29.333 0 52.166 5.33301 68.499 16s24.5 30.667 24.5 60v57l-285 165v109c0 30.667 5.33301 57.334 16 80.001s25.5 41.5 44.5 56.5s41.667 26.167 68 33.5s54.833 11 85.5 11c15.333 0 31.5 -1.33301 48.5 -4s34.5 -7.66699 52.5 -15
s36 -17.5 54 -30.5s36 -29.5 54 -49.5l-82 -83c-21.333 23.333 -43.5 41.166 -66.5 53.499s-46.167 18.5 -69.5 18.5c-26 0 -46 -5 -60 -15s-21 -27.667 -21 -53v-69zM249.998 694l-107 115l47 46l62 -57l61 55l44 -43z" />
    <glyph glyph-name="scaron" unicode="&#x161;" horiz-adv-x="408" 
d="M363 220v-69c0 -52 -14.833 -92 -44.5 -120s-70.167 -42 -121.5 -42c-35.333 0 -68.5 7.5 -99.5 22.5s-57.167 36.5 -78.5 64.5l71 80c5.33301 -8 12.333 -15.833 21 -23.5s18.334 -14.667 29.001 -21s21.667 -11.333 33 -15s21.666 -5.5 30.999 -5.5
c17.333 0 28.5 3.5 33.5 10.5s7.5 16.833 7.5 29.5v36l-200 96v86c0 48 14.667 85.167 44 111.5s68 39.5 116 39.5c28.667 0 56.834 -7.33301 84.501 -22s51.5 -33 71.5 -55l-69 -79c-10.667 12.667 -22.834 24.167 -36.501 34.5s-28.167 15.5 -43.5 15.5
c-32.667 0 -49 -15 -49 -45v-41zM199 494l-107 115l47 46l62 -57l61 55l44 -43z" />
    <glyph glyph-name="Ydieresis" unicode="&#x178;" horiz-adv-x="556" 
d="M211 269l-195 411h134l123 -285l126 285h134l-198 -412v-268h-124v269zM242 743h-107v107h107v-107zM408 743h-106v107h106v-107z" />
    <glyph glyph-name="Zcaron" unicode="&#x17d;" horiz-adv-x="506" 
d="M469 680v-54l-273 -516h269v-110h-428v57l273 513h-269v110h428zM246 694l-107 115l47 46l62 -57l61 55l44 -43z" />
    <glyph glyph-name="zcaron" unicode="&#x17e;" horiz-adv-x="399" 
d="M352 490v-61l-185 -327h198v-102h-332v73l186 320h-182v97h315zM194 484l-107 115l47 46l62 -57l61 55l44 -43z" />
    <glyph glyph-name="florin" unicode="&#x192;" horiz-adv-x="531" 
d="M357 758c32.667 0 63.835 -6.66992 93.502 -20.0029s53.5 -32.666 71.5 -57.999l-50 -71c-15.333 16.667 -32.833 29.5 -52.5 38.5s-37.834 13.5 -54.501 13.5c-40 0 -62.667 -21.667 -68 -65l-15 -103h80l-5 -85h-87c-2 -21.333 -4.83301 -45.666 -8.5 -72.999
l-11 -83.5l-11 -82.5l-9.5 -70c-4 -34 -14 -62 -30 -84s-34.667 -39.333 -56 -52s-44 -21.5 -68 -26.5s-46.333 -7.5 -67 -7.5v93c25.333 0 45 3 59 9s24.833 13.5 32.5 22.5s12.667 18.833 15 29.5s4.16602 20.334 5.49902 29.001l39 296h-87l4 85h91l17 135
c3.33301 25.333 11 46.5 23 63.5s26.167 30.5 42.5 40.5s34 16.833 53 20.5s36.833 5.5 53.5 5.5z" />
    <glyph glyph-name="circumflex" unicode="&#x2c6;" horiz-adv-x="330" 
d="M164 729l116 -102l-41 -60l-75 55l-73 -55l-41 63z" />
    <glyph glyph-name="caron" unicode="&#x2c7;" horiz-adv-x="314" 
d="M157 484l-107 115l47 46l62 -57l61 55l44 -43z" />
    <glyph glyph-name="breve" unicode="&#x2d8;" horiz-adv-x="333" 
d="M166 584c-29.333 0 -53.167 7.83105 -71.5 23.498s-33.166 36.834 -44.499 63.501l68 25c9.33301 -22.667 17.166 -37.5 23.499 -44.5s14.5 -10.5 24.5 -10.5c13.333 0 23 5 29 15s12 23 18 39l70 -24c-13.333 -33.333 -30.333 -56.166 -51 -68.499
s-42.667 -18.5 -66 -18.5z" />
    <glyph glyph-name="dotaccent" unicode="&#x2d9;" horiz-adv-x="187" 
d="M50 708h87v-85h-87v85z" />
    <glyph glyph-name="ring" unicode="&#x2da;" horiz-adv-x="206" 
d="M104 557c-25.333 0 -44.5 7.66895 -57.5 23.002s-19.5 33.666 -19.5 54.999c0 28 8 47.833 24 59.5s33.667 17.5 53 17.5c26 0 45.167 -7.33301 57.5 -22s18.5 -33 18.5 -55c0 -26.667 -7.66699 -46.334 -23 -59.001s-33 -19 -53 -19zM75 635.002
c0 -10 0.998047 -17.499 2.99805 -22.499s4.5 -8.5 7.5 -10.5s6.16699 -3.16699 9.5 -3.5s6.33301 -0.5 9 -0.5c8.66699 0 16.334 1.83301 23.001 5.5s10 14.167 10 31.5c0 10 -1.16699 17.667 -3.5 23s-5.16602 9.16602 -8.49902 11.499s-6.83301 3.66602 -10.5 3.99902
s-7.16699 0.5 -10.5 0.5c-6.66699 0 -13.167 -2.16699 -19.5 -6.5s-9.5 -15.166 -9.5 -32.499z" />
    <glyph glyph-name="ogonek" unicode="&#x2db;" horiz-adv-x="270" 
d="M183 0l17 -99c-18 -5.33301 -33.5 -14 -46.5 -26s-21.167 -26.667 -24.5 -44v-9h91v-68h-170v16.5c0 7.66699 0.333008 13.167 1 16.5c4 44.667 13.333 79 28 103s35 43 61 57l-9 53h52z" />
    <glyph glyph-name="tilde" unicode="&#x2dc;" horiz-adv-x="391" 
d="M139 620c-6 0 -12.9941 -3.66992 -20.9941 -11.0029s-15 -17.666 -21 -30.999l-47 42c15.333 28.667 29.666 49.834 42.999 63.501s30.666 20.5 51.999 20.5c11.333 0 22.166 -2 32.499 -6s20 -8.16699 29 -12.5s17.167 -8.5 24.5 -12.5s13.333 -6 18 -6
c12.667 0 21.5 4.83301 26.5 14.5l13.5 26.5l52 -35c-2.66699 -12 -6.33398 -23.5 -11.001 -34.5s-10.334 -20.667 -17.001 -29s-14.334 -15.166 -23.001 -20.499s-18.667 -8 -30 -8c-12.667 0 -24.167 2 -34.5 6s-20 8.5 -29 13.5s-18 9.5 -27 13.5s-19.167 6 -30.5 6z" />
    <glyph glyph-name="hungarumlaut" unicode="&#x2dd;" horiz-adv-x="503" 
d="M275 690l-180 -159l-45 52l179 168zM453 680l-180 -159l-46 52l179 168z" />
    <glyph glyph-name="endash" unicode="&#x2013;" horiz-adv-x="509" 
d="M0 344h505v-92h-505v92z" />
    <glyph glyph-name="emdash" unicode="&#x2014;" horiz-adv-x="681" 
d="M1 344h678v-92h-678v92z" />
    <glyph glyph-name="quoteleft" unicode="&#x2018;" horiz-adv-x="162" 
d="M30 451v27c0 50 7 93.333 21 130s32 64 54 82l57 -35c-7.33301 -14 -13.833 -32.167 -19.5 -54.5s-8.5 -46.5 -8.5 -72.5v-77h-104z" />
    <glyph glyph-name="quoteright" unicode="&#x2019;" horiz-adv-x="172" 
d="M152 671v-27c0 -27.333 -2.66699 -52 -8 -74s-12.333 -41.667 -21 -59s-18.5 -32.5 -29.5 -45.5s-21.833 -23.833 -32.5 -32.5l-51 36c11.333 14 20.5 31.167 27.5 51.5s10.5 44.833 10.5 73.5v77h104z" />
    <glyph glyph-name="quotesinglbase" unicode="&#x201a;" horiz-adv-x="235" 
d="M205 99v-27c0 -27.333 -2.66699 -52 -8 -74s-12.333 -41.667 -21 -59s-18.5 -32.5 -29.5 -45.5s-21.833 -23.833 -32.5 -32.5l-51 36c11.333 14 20.5 31.167 27.5 51.5s10.5 44.833 10.5 73.5v77h104z" />
    <glyph glyph-name="quotedblleft" unicode="&#x201c;" horiz-adv-x="348" 
d="M206 451v27c0 50 7 93.333 21 130s32 64 54 82l57 -35c-7.33301 -14 -13.833 -32.167 -19.5 -54.5s-8.5 -46.5 -8.5 -72.5v-77h-104zM30 451v27c0 50 7 93.333 21 130s32 64 54 82l57 -35c-7.33301 -14 -13.833 -32.167 -19.5 -54.5s-8.5 -46.5 -8.5 -72.5v-77h-104z" />
    <glyph glyph-name="quotedblright" unicode="&#x201d;" horiz-adv-x="345" 
d="M152 678v-27c0 -27.333 -2.66699 -52 -8 -74s-12.333 -41.667 -21 -59s-18.5 -32.5 -29.5 -45.5s-21.833 -23.833 -32.5 -32.5l-51 36c11.333 14 20.5 31.167 27.5 51.5s10.5 44.833 10.5 73.5v77h104zM324 680v-27c0 -27.333 -2.66699 -52 -8 -74
s-12.333 -41.667 -21 -59s-18.5 -32.5 -29.5 -45.5s-21.833 -23.833 -32.5 -32.5l-51 36c11.333 14 20.5 31.167 27.5 51.5s10.5 44.833 10.5 73.5v77h104z" />
    <glyph glyph-name="quotedblbase" unicode="&#x201e;" horiz-adv-x="389" 
d="M205 100v-27c0 -27.333 -2.66699 -52 -8 -74s-12.333 -41.667 -21 -59s-18.5 -32.5 -29.5 -45.5s-21.833 -23.833 -32.5 -32.5l-51 36c11.333 14 20.5 31.167 27.5 51.5s10.5 44.833 10.5 73.5v77h104zM367 101v-27c0 -27.333 -2.66699 -52 -8 -74
s-12.333 -41.667 -21 -59s-18.5 -32.5 -29.5 -45.5s-21.833 -23.833 -32.5 -32.5l-51 36c11.333 14 20.5 31.167 27.5 51.5s10.5 44.833 10.5 73.5v77h104z" />
    <glyph glyph-name="dagger" unicode="&#x2020;" horiz-adv-x="429" 
d="M283 490h107v-100h-107v-393h-124v393h-118v100h118v190h124v-190z" />
    <glyph glyph-name="daggerdbl" unicode="&#x2021;" horiz-adv-x="481" 
d="M303 490h148v-100h-148v-290h148v-100h-148v-185h-122v185h-151v100h151v290h-151v100h151v189h122v-189z" />
    <glyph glyph-name="bullet" unicode="&#x2022;" horiz-adv-x="327" 
d="M58 375h211v-210h-211v210z" />
    <glyph glyph-name="ellipsis" unicode="&#x2026;" horiz-adv-x="706" 
d="M285 135h135v-135h-135v135zM512 135h136v-135h-136v135zM58 135h135v-135h-135v135z" />
    <glyph glyph-name="perthousand" unicode="&#x2030;" horiz-adv-x="943" 
d="M452 700h95l-357 -700h-102zM306 504c0 -16.667 -3.33301 -31.668 -10 -45.001s-15.834 -24.5 -27.501 -33.5s-25 -15.833 -40 -20.5s-30.833 -7 -47.5 -7c-18 0 -34.833 1.5 -50.5 4.5s-29.5 8.16699 -41.5 15.5s-21.333 16.833 -28 28.5s-10 26.5 -10 44.5v107
c0 17.333 3.5 32.5 10.5 45.5s16.5 23.833 28.5 32.5s25.833 15.334 41.5 20.001s32.167 7 49.5 7c16.667 0 32.5 -2.33301 47.5 -7s28.333 -11.5 40 -20.5s20.834 -20 27.501 -33s10 -27.833 10 -44.5v-94zM477 303.999c17.333 0 33.5 -2.50098 48.5 -7.50098
s28.167 -12 39.5 -21s20.333 -20.167 27 -33.5s10 -28.333 10 -45v-92c0 -16 -3.5 -30.667 -10.5 -44s-16.333 -24.5 -28 -33.5s-25 -16 -40 -21s-30.5 -7.5 -46.5 -7.5c-36.667 0 -67.5 8.66699 -92.5 26s-37.5 44.333 -37.5 81v93c0 17.333 3.5 32.5 10.5 45.5
s16.5 23.833 28.5 32.5s25.833 15.334 41.5 20.001s32.167 7 49.5 7zM151 510.998c0 -8 2.99902 -14 8.99902 -18s13 -6 21 -6c6.66699 0 12.834 2.5 18.501 7.5s8.5 11.167 8.5 18.5v76c0 16.667 -9 25 -27 25c-8 0 -15 -2.5 -21 -7.5s-9 -11.167 -9 -18.5v-77z
M504.999 187.998c0 5.33301 -3.16797 11.166 -9.50098 17.499s-12.5 9.5 -18.5 9.5c-7.33301 0 -14.166 -2.5 -20.499 -7.5s-9.5 -11.167 -9.5 -18.5v-77c0 -9.33301 3 -15.666 9 -18.999s13 -5 21 -5c7.33301 0 13.833 2.66699 19.5 8s8.5 12 8.5 20v72zM766.998 303.998
c16.667 0 32.4971 -2.50098 47.4971 -7.50098s28.333 -12 40 -21s20.834 -20.167 27.501 -33.5s10 -28.333 10 -45v-92c0 -16.667 -3.5 -31.5 -10.5 -44.5s-16.167 -24 -27.5 -33s-24.666 -16 -39.999 -21s-31 -7.5 -47 -7.5c-36 0 -66.667 9 -92 27s-38 45 -38 81v92
c0 17.333 3.5 32.5 10.5 45.5s16.333 23.833 28 32.5s25.334 15.334 41.001 20.001s32.5 7 50.5 7zM793.995 186.997c0 7.33301 -2.66504 13.832 -7.99805 19.499s-11.666 8.5 -18.999 8.5c-8.66699 0 -15.834 -2.83301 -21.501 -8.5s-8.5 -12.5 -8.5 -20.5v-74
c0 -7.33301 3.16699 -13.166 9.5 -17.499s13.166 -6.5 20.499 -6.5s13.666 2.66699 18.999 8s8 12 8 20v71z" />
    <glyph glyph-name="guilsinglleft" unicode="&#x2039;" horiz-adv-x="256" 
d="M167 -9l-140 184l140 189l52 -51l-76 -137l75 -129z" />
    <glyph glyph-name="guilsinglright" unicode="&#x203a;" horiz-adv-x="256" 
d="M112 176l-75 137l52 51l140 -189l-140 -184l-51 56z" />
    <glyph glyph-name="fraction" unicode="&#x2044;" horiz-adv-x="503" 
d="M3 0l400 680h99l-395 -680h-104z" />
    <glyph glyph-name="foursuperior" unicode="&#x2074;" horiz-adv-x="389" 
d="M296 475h67v-75h-67v-78h-91v78h-165v48l132 232h124v-205zM205 595h-11l-50 -120h61v120z" />
    <glyph glyph-name="Euro" unicode="&#x20ac;" horiz-adv-x="597" 
d="M337 580c-30.667 0 -51.167 -7 -61.5 -21s-15.5 -36 -15.5 -66v-39h189v-70h-189v-57h189v-71h-188v-68c0 -26.667 7.5 -47.834 22.5 -63.501s35.5 -23.5 61.5 -23.5c23.333 0 45.666 5.83301 66.999 17.5s41 26.5 59 44.5l66 -86c-28 -28 -57.333 -49.5 -88 -64.5
s-65.334 -22.5 -104.001 -22.5c-66.667 0 -118 17.5 -154 52.5s-54 86.167 -54 153.5v60h-114v71h114v57h-114v70h114v70c0 28 5 52.5 15 73.5s24 38.333 42 52s39.167 23.834 63.5 30.501s50.833 10 79.5 10c38 0 72.333 -6 103 -18s60 -32 88 -60l-57 -90
c-17.333 15.333 -38.166 28.833 -62.499 40.5s-48.166 17.5 -71.499 17.5z" />
    <glyph glyph-name="trademark" unicode="&#x2122;" horiz-adv-x="479" 
d="M288 700l37 -67l33 67h64v-210h-66v83l-20 -40h-31l-18 40v-83h-66v210h67zM28 700h177v-51h-57v-162h-64v162h-56v51z" />
    <glyph glyph-name="onethird" unicode="&#x2153;" horiz-adv-x="690" 
d="M108 575h-85v105h187v-336h-102v231zM61 0l400 680h99l-395 -680h-104zM646 258c0 -18 -5.83105 -33.6699 -17.498 -47.0029s-25.5 -22.666 -41.5 -27.999c16 -6.66699 30.333 -16.167 43 -28.5s19 -27.166 19 -44.499v-15c0 -20 -3.16699 -36.5 -9.5 -49.5
s-15.333 -23.5 -27 -31.5s-25.667 -13.5 -42 -16.5s-34.5 -4.5 -54.5 -4.5c-29.333 0 -55.5 4.5 -78.5 13.5s-42.167 25.167 -57.5 48.5l60 55c7.33301 -12 17.5 -21.667 30.5 -29s27.167 -11 42.5 -11c12 0 22 1.66699 30 5s12 11.666 12 24.999v11c0 24.667 -13 37 -39 37
h-66v71h63c9.33301 0 18.166 2.5 26.499 7.5s12.5 12.5 12.5 22.5v15c0 8.66699 -3.66699 15 -11 19s-15 6 -23 6c-14 0 -27.167 -1.16699 -39.5 -3.5s-22.5 -9.16602 -30.5 -20.499l-56 45c6 10.667 13.833 19.5 23.5 26.5s20.5 12.667 32.5 17s24.5 7.5 37.5 9.5
s25.5 3 37.5 3c37.333 0 67.166 -7.16699 89.499 -21.5s33.5 -40.166 33.5 -77.499v-9z" />
    <glyph glyph-name="twothirds" unicode="&#x2154;" horiz-adv-x="809" 
d="M124 0l400 680h99l-395 -680h-104zM722 267c0 -18 -5.83105 -33.6699 -17.498 -47.0029s-25.5 -22.666 -41.5 -27.999c16 -6.66699 30.333 -16.167 43 -28.5s19 -27.166 19 -44.499v-15c0 -20 -3.16699 -36.5 -9.5 -49.5s-15.333 -23.5 -27 -31.5
s-25.667 -13.5 -42 -16.5s-34.5 -4.5 -54.5 -4.5c-29.333 0 -55.5 4.5 -78.5 13.5s-42.167 25.167 -57.5 48.5l60 55c7.33301 -12 17.5 -21.667 30.5 -29s27.167 -11 42.5 -11c12 0 22 1.66699 30 5s12 11.666 12 24.999v11c0 24.667 -13 37 -39 37h-66v71h63
c9.33301 0 18.166 2.5 26.499 7.5s12.5 12.5 12.5 22.5v15c0 8.66699 -3.66699 15 -11 19s-15 6 -23 6c-14 0 -27.167 -1.16699 -39.5 -3.5s-22.5 -9.16602 -30.5 -20.499l-56 45c6 10.667 13.833 19.5 23.5 26.5s20.5 12.667 32.5 17s24.5 7.5 37.5 9.5s25.5 3 37.5 3
c37.333 0 67.166 -7.16699 89.499 -21.5s33.5 -40.166 33.5 -77.499v-9zM192.002 698.997c38.667 0 68.167 -7.83496 88.5 -23.502s30.5 -41.167 30.5 -76.5c0 -19.333 -5.83301 -37.833 -17.5 -55.5s-25.834 -31.5 -42.501 -41.5c-6.66699 -4 -14.5 -7.66699 -23.5 -11
s-17.5 -7.16602 -25.5 -11.499s-14.833 -9.33301 -20.5 -15s-8.16699 -12.167 -7.5 -19.5h137v-81h-246v25c0 39.333 6.83301 73 20.5 101s39.167 49.667 76.5 65c5.33301 2 11 4 17 6s11.667 4.33301 17 7s9.83301 6 13.5 10s5.5 9.33301 5.5 16
c0 7.33301 -3.16699 13 -9.5 17s-13.833 6 -22.5 6c-14 0 -27.667 -3.83301 -41 -11.5s-25.333 -16.167 -36 -25.5l-45 62c6.66699 9.33301 15.334 17.5 26.001 24.5s22 12.833 34 17.5s24.333 8.33398 37 11.001s24 4 34 4z" />
    <glyph glyph-name="minus" unicode="&#x2212;" horiz-adv-x="468" 
d="M431 396v-109h-394v109h394z" />
    <glyph glyph-name="asteriskmath" unicode="&#x2217;" horiz-adv-x="442" 
d="M356 461l18 -69l-100 -42l60 -98l-58 -49l-59 95l-61 -96l-58 48l64 100l-101 43l18 69l99 -40v117h78v-118z" />
    <glyph glyph-name="notequal" unicode="&#x2260;" horiz-adv-x="541" 
d="M383 442h121v-93h-160l-47 -114h207v-92h-245l-54 -131l-73 37l38 94h-133v92h171l46 114h-217v93h255l57 133l71 -43z" />
    <glyph glyph-name="lessequal" unicode="&#x2264;" horiz-adv-x="545" 
d="M494 108l-457 216l457 209v-102l-251 -109l251 -116v-98zM50 85h444v-85h-444v85z" />
    <glyph glyph-name="greaterequal" unicode="&#x2265;" horiz-adv-x="502" 
d="M440 0h-403v85h403v-85zM460 327l-423 -203v87l236 113l-236 110v93z" />
    <glyph glyph-name="Scaronsmall" unicode="&#xf6fd;" horiz-adv-x="450" 
d="M417 239v-79c0 -27.333 -5.16699 -51.5 -15.5 -72.5s-24.333 -38.833 -42 -53.5s-38.167 -25.667 -61.5 -33s-48 -11 -74 -11c-73.333 0 -136.333 32.333 -189 97l76 86c6.66699 -10 13.834 -19.5 21.501 -28.5s16 -17.167 25 -24.5s18.667 -13.166 29 -17.499
s21.5 -6.5 33.5 -6.5c21.333 0 39.166 3.83301 53.499 11.5s21.5 22.834 21.5 45.501v36l-228 75v111c0 24 4.5 45.833 13.5 65.5s21.833 36.5 38.5 50.5s36.5 24.833 59.5 32.5s48.833 11.5 77.5 11.5c32 0 61.5 -8.33301 88.5 -25s53.167 -36.667 78.5 -60l-73 -81
c-11.333 15.333 -25 28.666 -41 39.999s-34.333 17 -55 17c-19.333 0 -35.333 -4.83301 -48 -14.5s-19 -21.834 -19 -36.501v-59zM225 534l-107 115l47 46l62 -57l61 55l44 -43z" />
    <glyph glyph-name="Zcaronsmall" unicode="&#xf6ff;" horiz-adv-x="466" 
d="M435 110v-110h-384l-4 69l221 356h-207v109h371v-70l-221 -354h224zM233 534l-107 115l47 46l62 -57l61 55l44 -43z" />
    <glyph glyph-name="zerooldstyle" unicode="&#xf730;" horiz-adv-x="478" 
d="M239 499c68.667 0 119.5 -17.499 152.5 -52.499s49.5 -86.833 49.5 -155.5v-99c0 -66.667 -17.167 -117 -51.5 -151s-84.5 -51 -150.5 -51c-134.667 0 -202 67.333 -202 202v99c0 66.667 16.5 117.667 49.5 153s83.833 53.666 152.5 54.999zM317 291.001
c0 32.667 -4.83105 57.167 -14.498 73.5s-30.834 24.5 -63.501 24.5c-31.333 0 -52.166 -8.5 -62.499 -25.5s-15.5 -41.167 -15.5 -72.5v-99c0 -30.667 5.16699 -53.667 15.5 -69s31.166 -23 62.499 -23s52.166 7.33301 62.499 22s15.5 38 15.5 70v99z" />
    <glyph glyph-name="oneoldstyle" unicode="&#xf731;" horiz-adv-x="421" 
d="M55 92h109v297h-99v90l220 18v-405h102v-92h-332v92z" />
    <glyph glyph-name="twooldstyle" unicode="&#xf732;" horiz-adv-x="505" 
d="M347 208c-13.333 -8.66699 -27.834 -16.999 -43.501 -24.999s-30.334 -16 -44.001 -24s-25.167 -15.833 -34.5 -23.5s-14 -16.167 -14 -25.5h250v-110h-382v42c0 27.333 2.83301 51.833 8.5 73.5s14.834 41.667 27.501 60s29.667 35.333 51 51s47.333 31.5 78 47.5
c29.333 14.667 49.833 27.5 61.5 38.5s17.5 22.167 17.5 33.5c0 14.667 -5 25.167 -15 31.5s-22.333 9.5 -37 9.5c-14 0 -27.833 -2.33301 -41.5 -7s-26.667 -10.5 -39 -17.5s-23.5 -14.5 -33.5 -22.5s-18 -15.667 -24 -23l-71 75c8 12 18.833 24.5 32.5 37.5
s29 24.667 46 35s35.333 19 55 26s39.834 10.5 60.501 10.5c62 0 109.333 -10.833 142 -32.5s49 -56.167 49 -103.5c0 -22.667 -2 -41.334 -6 -56.001s-10 -27.5 -18 -38.5s-18.333 -21.167 -31 -30.5z" />
    <glyph glyph-name="threeoldstyle" unicode="&#xf733;" horiz-adv-x="450" 
d="M377 283c0 -24.667 -7.49609 -47.1689 -22.4961 -67.502s-33.5 -35.166 -55.5 -44.499c30 -5.33301 54.167 -19.833 72.5 -43.5s27.5 -50.167 27.5 -79.5v-17c0 -44 -8.66699 -82 -26 -114s-40.833 -58.167 -70.5 -78.5s-64.334 -35.333 -104.001 -45
s-81.834 -14.5 -126.501 -14.5l-15 98c31.333 0 60.333 2.5 87 7.5s50 13.333 70 25s35.667 27.334 47 47.001s17 44.167 17 73.5v18c0 23.333 -7.83301 39.833 -23.5 49.5s-35.167 14.167 -58.5 13.5h-57v106h51c19.333 0 35.166 4.5 47.499 13.5s18.5 24.167 18.5 45.5v61
c0 20.667 -5.66699 34.667 -17 42s-27.333 11 -48 11c-18.667 0 -37.667 -4.5 -57 -13.5s-36.333 -18.167 -51 -27.5l-53 86c21.333 20 47.166 35.833 77.499 47.5s60.5 17.5 90.5 17.5c54 0 97.333 -11.5 130 -34.5s49 -61.5 49 -115.5v-67z" />
    <glyph glyph-name="fouroldstyle" unicode="&#xf734;" horiz-adv-x="513" 
d="M403 105h90v-105h-90v-219h-115v219h-248v60l146 430h217v-385zM289 389h-27l-84 -284h111v284z" />
    <glyph glyph-name="fiveoldstyle" unicode="&#xf735;" horiz-adv-x="479" 
d="M225 265c69.333 0 119.834 -14.998 151.501 -44.998s47.5 -79.667 47.5 -149v-35c0 -40.667 -10 -76.834 -30 -108.501s-46.167 -58.167 -78.5 -79.5s-68.833 -37.666 -109.5 -48.999s-81.334 -17 -122.001 -17l-17 101c27.333 0 55 2.83301 83 8.5s53.5 14.667 76.5 27
s41.667 28.166 56 47.499s21.5 42.666 21.5 69.999v35c0 27.333 -6.33301 48.5 -19 63.5s-32.667 22.5 -60 22.5h-165l31 333h303v-109h-191l-12 -116h34v0z" />
    <glyph glyph-name="sixoldstyle" unicode="&#xf736;" horiz-adv-x="503" 
d="M277 459c58 0 101.67 -12.334 131.003 -37.001s44 -66 44 -124v-130c0 -28 -5.16699 -52.667 -15.5 -74s-24.5 -39.333 -42.5 -54s-39.167 -25.667 -63.5 -33s-50.166 -11 -77.499 -11c-28 0 -53.833 3.66699 -77.5 11s-44.334 18.333 -62.001 33
s-31.334 32.667 -41.001 54s-14.5 46 -14.5 74v360c0 26 5.5 48.833 16.5 68.5s25.667 36.334 44 50.001s39.166 24 62.499 31s47.333 10.5 72 10.5c35.333 0 65 -5.5 89 -16.5s48.333 -29.167 73 -54.5l-69 -87c-8.66699 11.333 -21 22.5 -37 33.5s-31 16.5 -45 16.5
c-10.667 0 -21.167 -0.833008 -31.5 -2.5s-19.5 -4.5 -27.5 -8.5s-14.5 -9.33301 -19.5 -16s-7.5 -15 -7.5 -25v-112c14 11.333 29.167 21.333 45.5 30s34.166 13 53.499 13zM330.003 280.999c0 24.667 -6.66699 41.333 -20 50s-32.333 13 -57 13
c-23.333 0 -41.666 -7.16699 -54.999 -21.5s-20 -32.5 -20 -54.5v-100c0 -23.333 6.66699 -39.5 20 -48.5s31.666 -13.5 54.999 -13.5s42 4.33301 56 13s21 25 21 49v113z" />
    <glyph glyph-name="sevenoldstyle" unicode="&#xf737;" horiz-adv-x="449" 
d="M15 490h412l-207 -698h-131l189 590h-263v108z" />
    <glyph glyph-name="eightoldstyle" unicode="&#xf738;" horiz-adv-x="510" 
d="M440 466c0 -10 -2.50098 -20.667 -7.50098 -32s-11.333 -22 -19 -32s-16.167 -19 -25.5 -27s-18.666 -14 -27.999 -18c10 -6 20.5 -12.667 31.5 -20s21 -15.5 30 -24.5s16.333 -18.333 22 -28s8.5 -20.167 8.5 -31.5v-96c0 -25.333 -5.66699 -48 -17 -68
s-26.333 -37 -45 -51s-39.834 -24.833 -63.501 -32.5s-48.167 -11.5 -73.5 -11.5c-26 0 -50.833 3.5 -74.5 10.5s-44.5 17.5 -62.5 31.5s-32.167 31.167 -42.5 51.5s-15.5 43.5 -15.5 69.5v91c0 12 2.5 23.333 7.5 34s11.667 20.5 20 29.5s18 17.333 29 25
s22.167 14.5 33.5 20.5c-23.333 10.667 -42.666 27.667 -57.999 51s-23 48.333 -23 75v45c0 24 5.16699 46 15.5 66s24 37 41 51s36.833 25 59.5 33s46 12 70 12s47.167 -4 69.5 -12s42.333 -19 60 -33s31.667 -31 42 -51s15.5 -42 15.5 -66v-62v0zM328.999 221
c0 25.333 -4.16797 44.667 -12.501 58s-25.166 20 -50.499 20h-19c-25.333 0 -43.166 -6.33301 -53.499 -19s-15.5 -31.667 -15.5 -57v-49c0 -23.333 6.66699 -40.833 20 -52.5s31.666 -17.5 54.999 -17.5c20.667 0 38.5 5.5 53.5 16.5s22.5 27.5 22.5 49.5v51z
M188.998 466.001c0 -40 19.667 -59.333 59 -58h10c17.333 0 32 5.16699 44 15.5s18 24.5 18 42.5v62c0 18 -6.66699 31.167 -20 39.5s-29 12.5 -47 12.5c-19.333 0 -34.833 -4.16699 -46.5 -12.5s-17.5 -21.5 -17.5 -39.5v-62v0z" />
    <glyph glyph-name="nineoldstyle" unicode="&#xf739;" horiz-adv-x="504" 
d="M247 487c28.667 0 55.166 -3.50098 79.499 -10.501s45.333 -17.5 63 -31.5s31.5 -31.667 41.5 -53s15 -46.333 15 -75v-270c0 -47.333 -7.33301 -88 -22 -122s-35.667 -62 -63 -84s-60.166 -38.167 -98.499 -48.5s-81.166 -15.5 -128.499 -15.5l-13 96
c26.667 0 52.167 2.33301 76.5 7s45.833 12.5 64.5 23.5s33.5 25.333 44.5 43s16.5 39.834 16.5 66.501v33c-12.667 -11.333 -24.667 -19.833 -36 -25.5s-25 -8.5 -41 -8.5c-58.667 0 -105.834 14 -141.501 42s-53.5 71.333 -53.5 130v133c0 28 4.83301 52.667 14.5 74
s23.167 39 40.5 53s38 24.667 62 32s50.333 11 79 11zM322.999 316.999c0 23.333 -6.83496 39.5 -20.502 48.5s-32.167 13.5 -55.5 13.5s-41.666 -4.66699 -54.999 -14s-20 -25.333 -20 -48v-133c0 -23.333 6.83301 -39.5 20.5 -48.5s31.834 -13.5 54.501 -13.5
c23.333 0 41.833 6.5 55.5 19.5s20.5 31.5 20.5 55.5v120z" />
    <glyph glyph-name="Asmall" unicode="&#xf761;" horiz-adv-x="514" 
d="M324 540l171 -540h-131l-36 104h-143l-35 -104h-131l172 540h133zM306 200l-48 189l-49 -189h97z" />
    <glyph glyph-name="Bsmall" unicode="&#xf762;" horiz-adv-x="467" 
d="M411 367c0 -20.667 -6 -38.6719 -18 -54.0049s-27 -26.666 -45 -33.999c24 -7.33301 43.167 -19.666 57.5 -36.999s21.5 -38.666 21.5 -63.999v-51c0 -23.333 -3.66699 -43 -11 -59s-17.833 -29 -31.5 -39s-29.834 -17.333 -48.501 -22s-39.334 -7 -62.001 -7h-206v537
h190c22.667 0 43.334 -2.33301 62.001 -7s34.834 -12.167 48.501 -22.5s24.167 -23.666 31.5 -39.999s11 -36.166 11 -59.499v-41zM306 178.995c0 14.667 -2.33301 26.333 -7 35s-14.667 13 -30 13h-80v-121h70c17.333 0 29.5 2.66699 36.5 8s10.5 17.333 10.5 36v29z
M189 312.994h61c12 0 21.667 5.16699 29 15.5s11 21.833 11 34.5v28c0 16 -4.5 26.667 -13.5 32s-21.5 8 -37.5 8h-50v-118z" />
    <glyph glyph-name="Csmall" unicode="&#xf763;" horiz-adv-x="481" 
d="M252 428c-28 0 -50.167 -8.83398 -66.5 -26.501s-24.5 -39.5 -24.5 -65.5v-143c0 -28 7.66699 -50 23 -66s37 -24 65 -24c21.333 0 42.333 5.66699 63 17s39.334 23.666 56.001 36.999l61 -84c-26 -28 -53 -48.333 -81 -61s-61 -19 -99 -19
c-31.333 0 -59.833 4.5 -85.5 13.5s-47.667 22.167 -66 39.5s-32.5 38.333 -42.5 63s-15 52.667 -15 84v143c0 30 5.33301 57.333 16 82s25.5 45.834 44.5 63.501s41.5 31.334 67.5 41.001s54 14.5 84 14.5c40 0 74 -6.83301 102 -20.5s53.667 -37.167 77 -70.5l-77 -80
c-14.667 19.333 -29.334 34.5 -44.001 45.5s-34 16.5 -58 16.5z" />
    <glyph glyph-name="Dsmall" unicode="&#xf764;" horiz-adv-x="488" 
d="M241 545c29.333 0 56.665 -4.33105 81.998 -12.998s47.333 -21.334 66 -38.001s33.167 -36.667 43.5 -60s15.5 -50 15.5 -80v-164c0 -30.667 -5.16699 -57.834 -15.5 -81.501s-24.666 -43.5 -42.999 -59.5s-40.166 -28.167 -65.499 -36.5s-53 -12.5 -83 -12.5h-173v545
h173zM326.999 354.002c0 25.333 -8 45.167 -24 59.5s-36.667 21.5 -62 21.5h-52v-325h52c26.667 0 47.667 6.5 63 19.5s23 33.167 23 60.5v164z" />
    <glyph glyph-name="Esmall" unicode="&#xf765;" horiz-adv-x="429" 
d="M189 227v-117h200v-110h-320v547h303v-110h-183v-110h154v-100h-154z" />
    <glyph glyph-name="Fsmall" unicode="&#xf766;" horiz-adv-x="399" 
d="M373 435h-184v-116h154v-103h-154v-216h-121v545h305v-110z" />
    <glyph glyph-name="Gsmall" unicode="&#xf767;" horiz-adv-x="490" 
d="M238 302l198.001 0.00195312v-235c-16 -13.333 -31.167 -24.833 -45.5 -34.5s-29.166 -17.5 -44.499 -23.5s-31.5 -10.333 -48.5 -13s-35.833 -4 -56.5 -4c-64 0 -113.5 17.5 -148.5 52.5s-52.5 84.5 -52.5 148.5v148c0 30 5.16699 57.333 15.5 82
s24.666 45.667 42.999 63s40.333 30.833 66 40.5s53.5 14.5 83.5 14.5c38 0 71.333 -5.83301 100 -17.5s54.667 -32.834 78 -63.501l-69 -87c-13.333 17.333 -29.5 31.5 -48.5 42.5s-39.167 16.5 -60.5 16.5c-26.667 0 -47.834 -8.83301 -63.501 -26.5
s-23.5 -39.167 -23.5 -64.5v-148c0 -28 6.33301 -50.167 19 -66.5s33 -24.5 61 -24.5c15.333 0 28 0.666992 38 2s22 6.66602 36 15.999v98h-77v84z" />
    <glyph glyph-name="Hsmall" unicode="&#xf768;" horiz-adv-x="547" 
d="M358 535h121v-535h-121v223h-169v-223h-121v535h121v-202h169v202z" />
    <glyph glyph-name="Ismall" unicode="&#xf769;" horiz-adv-x="270" 
d="M75 535h120v-535h-120v535z" />
    <glyph glyph-name="Jsmall" unicode="&#xf76a;" horiz-adv-x="411" 
d="M221 534l122 0.000976562v-398c0 -48.667 -15.5 -85 -46.5 -109s-70.833 -36 -119.5 -36c-53.333 0 -93 12 -119 36s-39 63.333 -39 118l114 20c2 -16.667 6.16699 -31.834 12.5 -45.501s17.833 -20.5 34.5 -20.5c14 0 24.333 2.5 31 7.5s10 14.833 10 29.5v398z" />
    <glyph glyph-name="Ksmall" unicode="&#xf76b;" horiz-adv-x="497" 
d="M189 338l141 196h150l-185 -239l197 -295h-154l-127 209l-22 -26v-183h-121v534h121v-196z" />
    <glyph glyph-name="Lsmall" unicode="&#xf76c;" horiz-adv-x="409" 
d="M189 535v-425h215v-110h-335v535h120z" />
    <glyph glyph-name="Msmall" unicode="&#xf76d;" horiz-adv-x="612" 
d="M199 534l106 -222l108 222h131v-534h-121v312l-96 -194h-44l-94 193v-311h-121v534h131z" />
    <glyph glyph-name="Nsmall" unicode="&#xf76e;" horiz-adv-x="562" 
d="M386 535h108v-535h-148l-169 333v-333h-109v535h143l175 -328v328z" />
    <glyph glyph-name="Osmall" unicode="&#xf76f;" horiz-adv-x="522" 
d="M267 542c30 0 57.668 -4.83301 83.001 -14.5s47.166 -23.334 65.499 -41.001s32.833 -38.667 43.5 -63s16 -51.5 16 -81.5v-149c0 -30.667 -5.16699 -58.5 -15.5 -83.5s-24.666 -46 -42.999 -63s-40.333 -30.167 -66 -39.5s-53.834 -14 -84.501 -14h-9
c-31.333 0 -59.833 4.5 -85.5 13.5s-47.834 22.167 -66.501 39.5s-33 38.333 -43 63s-15 52.667 -15 84v149c0 30 5.16699 57.167 15.5 81.5s24.833 45.333 43.5 63s40.834 31.334 66.501 41.001s53.5 14.5 83.5 14.5h11v0zM355.001 342c0 25.333 -8.33301 46.833 -25 64.5
s-37.667 26.5 -63 26.5h-11c-26.667 0 -48 -8.83301 -64 -26.5s-24 -39.167 -24 -64.5v-149c0 -28 7.83301 -50 23.5 -66s37.5 -24 65.5 -24h9c27.333 0 49 8 65 24s24 38 24 66v149z" />
    <glyph glyph-name="Psmall" unicode="&#xf770;" horiz-adv-x="450" 
d="M68 535h187.001c49.333 0 87.666 -13.5 114.999 -40.5s41 -65.167 41 -114.5v-44c0 -53.333 -13.167 -90.833 -39.5 -112.5s-65.5 -32.5 -117.5 -32.5h-65v-191h-121v535zM290.001 384c0 14 -2.33301 24.499 -7 31.499s-14 10.5 -28 10.5h-66v-135h66
c13.333 0 22.5 3.33301 27.5 10s7.5 17.334 7.5 32.001v51z" />
    <glyph glyph-name="Qsmall" unicode="&#xf771;" horiz-adv-x="543" 
d="M423 46c2.66699 -7.33301 7.33301 -11.501 14 -12.501s13.667 -1.5 21 -1.5h52v-85h-50c-8.66699 0 -18.334 0.5 -29.001 1.5s-20.5 2.5 -29.5 4.5s-16.833 4.33301 -23.5 7s-11 6 -13 10l-31 38c-24 -7.33301 -46.667 -11 -68 -11h-10c-63.333 0 -114 17.5 -152 52.5
s-57 84.167 -57 147.5v134c0 30 5.16699 57.333 15.5 82s24.833 46 43.5 64s40.834 32 66.501 42s53.5 15 83.5 15h10c29.333 0 56.5 -3.83301 81.5 -11.5s46.833 -19 65.5 -34s33.167 -33.667 43.5 -56s15.5 -48.166 15.5 -77.499v-154c0 -16.667 -0.5 -32 -1.5 -46
s-3.5 -26.667 -7.5 -38s-9.5 -22 -16.5 -32s-16.5 -20 -28.5 -30zM265.999 96.999c2.66699 0 7.33301 1.33398 14 4.00098l-48 87l77 47l49 -80c0 6.66699 0.333008 14 1 22s1 15.667 1 23v125c0 19.333 -1.33301 35.333 -4 48s-7.5 22.667 -14.5 30
s-16.5 12.666 -28.5 15.999s-27.667 5 -47 5h-10c-26.667 0 -48 -9 -64 -27s-24 -40 -24 -66v-134c0 -28 7.83301 -51.667 23.5 -71s37.5 -29 65.5 -29h9z" />
    <glyph glyph-name="Rsmall" unicode="&#xf772;" horiz-adv-x="515" 
d="M435 341c0 -32.667 -7.16602 -59 -21.499 -79s-35.5 -37.667 -63.5 -53l111 -209h-133l-104 192h-35v-192h-121v536h217c49.333 0 86.666 -12.833 111.999 -38.5s38 -63.167 38 -112.5v-44v0zM189.001 285h81c30 0 45 14.667 45 44v52c0 30.667 -15 46 -45 46h-81v-142z
" />
    <glyph glyph-name="Ssmall" unicode="&#xf773;" horiz-adv-x="474" 
d="M252 320c27.333 -6.66699 51.668 -14.1641 73.001 -22.4971s39.333 -18.5 54 -30.5s25.834 -26.5 33.501 -43.5s11.5 -38.167 11.5 -63.5c0 -27.333 -5.16699 -51.5 -15.5 -72.5s-24.333 -38.833 -42 -53.5s-38.167 -25.667 -61.5 -33s-48 -11 -74 -11
c-73.333 0 -136.333 32.333 -189 97l76 86c13.333 -19.333 29 -37 47 -53s39 -24 63 -24c21.333 0 39.166 3.83301 53.499 11.5s21.5 22.834 21.5 45.501c0 9.33301 -2.83301 17.333 -8.5 24s-12.834 12.5 -21.501 17.5s-18 9.16699 -28 12.5s-19.333 6 -28 8
c-26 6 -49.167 13.167 -69.5 21.5s-37.333 18.666 -51 30.999s-24 27.166 -31 44.499s-10.5 38.333 -10.5 63c0 24 4.5 45.833 13.5 65.5s21.833 36.5 38.5 50.5s36.667 24.833 60 32.5s49.333 11.5 78 11.5c32 0 61.333 -8.33301 88 -25s53 -36.667 79 -60l-74 -81
c-11.333 15.333 -25 28.666 -41 39.999s-34 17 -54 17c-19.333 0 -35.333 -4.83301 -48 -14.5s-19 -21.834 -19 -36.501c0 -11.333 1.83301 -20 5.5 -26s9 -10.667 16 -14s15.167 -6 24.5 -8s19.333 -4.33301 30 -7z" />
    <glyph glyph-name="Tsmall" unicode="&#xf774;" horiz-adv-x="432" 
d="M12 535h408v-110h-144v-425h-122v425h-142v110z" />
    <glyph glyph-name="Usmall" unicode="&#xf775;" horiz-adv-x="555" 
d="M366 536h121v-337c0 -30.667 -5.16699 -58.334 -15.5 -83.001s-24.833 -45.667 -43.5 -63s-40.667 -30.666 -66 -39.999s-53 -14 -83 -14c-30.667 0 -59 4.66699 -85 14s-48.333 22.666 -67 39.999s-33.167 38.333 -43.5 63s-15.5 52.334 -15.5 83.001v337h121v-337
c0 -26.667 8.16699 -48.5 24.5 -65.5s38.166 -25.5 65.499 -25.5c26.667 0 47.834 8.16699 63.501 24.5s23.5 38.5 23.5 66.5v337z" />
    <glyph glyph-name="Vsmall" unicode="&#xf776;" horiz-adv-x="516" 
d="M148 536l110 -365l112 365h127l-179 -536h-123l-176 536h129z" />
    <glyph glyph-name="Wsmall" unicode="&#xf777;" horiz-adv-x="660" 
d="M388 536l67 -299l62 303h124l-118 -540h-124l-69 337l-71 -337h-124l-116 540h125l60 -302l68 298h116z" />
    <glyph glyph-name="Xsmall" unicode="&#xf778;" horiz-adv-x="585" 
d="M187 535l108 -165l110 165h138l-180 -259l182 -276h-140l-112 170l-115 -170h-138l185 275l-178 260h140z" />
    <glyph glyph-name="Ysmall" unicode="&#xf779;" horiz-adv-x="507" 
d="M158 534l91 -181l94 181h138l-172 -314v-220h-120l1 220l-171 314h139z" />
    <glyph glyph-name="Zsmall" unicode="&#xf77a;" horiz-adv-x="482" 
d="M435 110v-110h-384l-4 69l221 356h-207v109h371v-70l-221 -354h224z" />
    <glyph glyph-name="Agravesmall" unicode="&#xf7e0;" horiz-adv-x="507" 
d="M324 540l171 -540h-131l-36 104h-143l-35 -104h-131l172 540h133zM306 200l-48 189l-49 -189h97zM227 796l86 -163l-60 -50l-102 150z" />
    <glyph glyph-name="Aacutesmall" unicode="&#xf7e1;" horiz-adv-x="507" 
d="M324 540l171 -540h-131l-36 104h-143l-35 -104h-131l172 540h133zM306 200l-48 189l-49 -189h97zM283 781l75 -51l-105 -152l-59 46z" />
    <glyph glyph-name="Acircumflexsmall" unicode="&#xf7e2;" horiz-adv-x="507" 
d="M324 540l171 -540h-131l-36 104h-143l-35 -104h-131l172 540h133zM306 200l-48 189l-49 -189h97zM252 769l116 -102l-41 -60l-75 55l-73 -55l-41 63z" />
    <glyph glyph-name="Atildesmall" unicode="&#xf7e3;" horiz-adv-x="507" 
d="M324 540l171 -540h-131l-36 104h-143l-35 -104h-131l172 540h133zM306 200l-48 189l-49 -189h97zM196 660c-6 0 -12.9941 -3.66992 -20.9941 -11.0029s-15 -17.666 -21 -30.999l-47 42c15.333 28.667 29.666 49.834 42.999 63.501s30.666 20.5 51.999 20.5
c11.333 0 22.166 -2 32.499 -6s20 -8.16699 29 -12.5s17.167 -8.5 24.5 -12.5s13.333 -6 18 -6c12.667 0 21.5 4.83301 26.5 14.5l13.5 26.5l52 -35c-2.66699 -12 -6.33398 -23.5 -11.001 -34.5s-10.334 -20.667 -17.001 -29s-14.334 -15.166 -23.001 -20.499
s-18.667 -8 -30 -8c-12.667 0 -24.167 2 -34.5 6s-20 8.5 -29 13.5s-18 9.5 -27 13.5s-19.167 6 -30.5 6z" />
    <glyph glyph-name="Adieresissmall" unicode="&#xf7e4;" horiz-adv-x="507" 
d="M324 540l171 -540h-131l-36 104h-143l-35 -104h-131l172 540h133zM306 200l-48 189l-49 -189h97zM223 633h-107v107h107v-107zM389 633h-106v107h106v-107z" />
    <glyph glyph-name="Aringsmall" unicode="&#xf7e5;" horiz-adv-x="507" 
d="M324 540l171 -540h-131l-36 104h-143l-35 -104h-131l172 540h133zM306 200l-48 189l-49 -189h97zM259 597c-25.333 0 -44.5 7.66895 -57.5 23.002s-19.5 33.666 -19.5 54.999c0 28 8 47.833 24 59.5s33.667 17.5 53 17.5c26 0 45.167 -7.33301 57.5 -22
s18.5 -33 18.5 -55c0 -26.667 -7.66699 -46.334 -23 -59.001s-33 -19 -53 -19zM230 675.002c0 -10 0.998047 -17.499 2.99805 -22.499s4.5 -8.5 7.5 -10.5s6.16699 -3.16699 9.5 -3.5s6.33301 -0.5 9 -0.5c8.66699 0 16.334 1.83301 23.001 5.5s10 14.167 10 31.5
c0 10 -1.16699 17.667 -3.5 23s-5.16602 9.16602 -8.49902 11.499s-6.83301 3.66602 -10.5 3.99902s-7.16699 0.5 -10.5 0.5c-6.66699 0 -13.167 -2.16699 -19.5 -6.5s-9.5 -15.166 -9.5 -32.499z" />
    <glyph glyph-name="Ccedillasmall" unicode="&#xf7e7;" horiz-adv-x="467" 
d="M252 428c-28 0 -50.167 -8.83398 -66.5 -26.501s-24.5 -39.5 -24.5 -65.5v-143c0 -28 7.66699 -50 23 -66s37 -24 65 -24c21.333 0 42.333 5.66699 63 17s39.334 23.666 56.001 36.999l61 -84c-26 -28 -53 -48.333 -81 -61s-61 -19 -99 -19
c-31.333 0 -59.833 4.5 -85.5 13.5s-47.667 22.167 -66 39.5s-32.5 38.333 -42.5 63s-15 52.667 -15 84v143c0 30 5.33301 57.333 16 82s25.5 45.834 44.5 63.501s41.5 31.334 67.5 41.001s54 14.5 84 14.5c40 0 74 -6.83301 102 -20.5s53.667 -37.167 77 -70.5l-77 -80
c-14.667 19.333 -29.334 34.5 -44.001 45.5s-34 16.5 -58 16.5zM294 -0.000976562l-11.002 -59.002c6 -3.33301 12.667 -7.33301 20 -12s14.5 -10.834 21.5 -18.501s12.833 -17 17.5 -28s7 -24.167 7 -39.5c0 -17.333 -3 -32.166 -9 -44.499s-14.5 -23.333 -25.5 -33
s-24.167 -18.167 -39.5 -25.5s-32.666 -15 -51.999 -23l-32 66c12.667 6.66699 24.834 13.834 36.501 21.501s17.5 20.167 17.5 37.5c0 10 -1 18.333 -3 25s-5.16699 12.167 -9.5 16.5s-10 7.83301 -17 10.5s-15.5 5.33398 -25.5 8.00098l16 98h88z" />
    <glyph glyph-name="Egravesmall" unicode="&#xf7e8;" horiz-adv-x="411" 
d="M189 227v-117h200v-110h-320v547h303v-110h-183v-110h154v-100h-154zM191 796l86 -163l-60 -50l-102 150z" />
    <glyph glyph-name="Eacutesmall" unicode="&#xf7e9;" horiz-adv-x="411" 
d="M189 227v-117h200v-110h-320v547h303v-110h-183v-110h154v-100h-154zM247 781l75 -51l-105 -152l-59 46z" />
    <glyph glyph-name="Ecircumflexsmall" unicode="&#xf7ea;" horiz-adv-x="411" 
d="M189 227v-117h200v-110h-320v547h303v-110h-183v-110h154v-100h-154zM216 769l116 -102l-41 -60l-75 55l-73 -55l-41 63z" />
    <glyph glyph-name="Edieresissmall" unicode="&#xf7eb;" horiz-adv-x="411" 
d="M189 227v-117h200v-110h-320v547h303v-110h-183v-110h154v-100h-154zM187 633h-107v107h107v-107zM353 633h-106v107h106v-107z" />
    <glyph glyph-name="Igravesmall" unicode="&#xf7ec;" horiz-adv-x="247" 
d="M75 535h120v-535h-120v535zM99 796l86 -163l-60 -50l-102 150z" />
    <glyph glyph-name="Iacutesmall" unicode="&#xf7ed;" horiz-adv-x="247" 
d="M75 535h120v-535h-120v535zM153 781l75 -51l-105 -152l-59 46z" />
    <glyph glyph-name="Icircumflexsmall" unicode="&#xf7ee;" horiz-adv-x="247" 
d="M75 535h120v-535h-120v535zM123 769l116 -102l-41 -60l-75 55l-73 -55l-41 63z" />
    <glyph glyph-name="Idieresissmall" unicode="&#xf7ef;" horiz-adv-x="247" 
d="M75 535h120v-535h-120v535zM95 633h-107v107h107v-107zM261 633h-106v107h106v-107z" />
    <glyph glyph-name="Ntildesmall" unicode="&#xf7f1;" horiz-adv-x="539" 
d="M386 535h108v-535h-148l-169 333v-333h-109v535h143l175 -328v328zM213 660c-6 0 -12.9941 -3.66992 -20.9941 -11.0029s-15 -17.666 -21 -30.999l-47 42c15.333 28.667 29.666 49.834 42.999 63.501s30.666 20.5 51.999 20.5c11.333 0 22.166 -2 32.499 -6
s20 -8.16699 29 -12.5s17.167 -8.5 24.5 -12.5s13.333 -6 18 -6c12.667 0 21.5 4.83301 26.5 14.5l13.5 26.5l52 -35c-2.66699 -12 -6.33398 -23.5 -11.001 -34.5s-10.334 -20.667 -17.001 -29s-14.334 -15.166 -23.001 -20.499s-18.667 -8 -30 -8
c-12.667 0 -24.167 2 -34.5 6s-20 8.5 -29 13.5s-18 9.5 -27 13.5s-19.167 6 -30.5 6z" />
    <glyph glyph-name="Ogravesmall" unicode="&#xf7f2;" horiz-adv-x="506" 
d="M267 542c30 0 57.668 -4.83301 83.001 -14.5s47.166 -23.334 65.499 -41.001s32.833 -38.667 43.5 -63s16 -51.5 16 -81.5v-149c0 -30.667 -5.16699 -58.5 -15.5 -83.5s-24.666 -46 -42.999 -63s-40.333 -30.167 -66 -39.5s-53.834 -14 -84.501 -14h-9
c-31.333 0 -59.833 4.5 -85.5 13.5s-47.834 22.167 -66.501 39.5s-33 38.333 -43 63s-15 52.667 -15 84v149c0 30 5.16699 57.167 15.5 81.5s24.833 45.333 43.5 63s40.834 31.334 66.501 41.001s53.5 14.5 83.5 14.5h11v0zM355.001 342c0 25.333 -8.33301 46.833 -25 64.5
s-37.667 26.5 -63 26.5h-11c-26.667 0 -48 -8.83301 -64 -26.5s-24 -39.167 -24 -64.5v-149c0 -28 7.83301 -50 23.5 -66s37.5 -24 65.5 -24h9c27.333 0 49 8 65 24s24 38 24 66v149zM226.001 796l86 -163l-60 -50l-102 150z" />
    <glyph glyph-name="Oacutesmall" unicode="&#xf7f3;" horiz-adv-x="506" 
d="M267 542c30 0 57.668 -4.83301 83.001 -14.5s47.166 -23.334 65.499 -41.001s32.833 -38.667 43.5 -63s16 -51.5 16 -81.5v-149c0 -30.667 -5.16699 -58.5 -15.5 -83.5s-24.666 -46 -42.999 -63s-40.333 -30.167 -66 -39.5s-53.834 -14 -84.501 -14h-9
c-31.333 0 -59.833 4.5 -85.5 13.5s-47.834 22.167 -66.501 39.5s-33 38.333 -43 63s-15 52.667 -15 84v149c0 30 5.16699 57.167 15.5 81.5s24.833 45.333 43.5 63s40.834 31.334 66.501 41.001s53.5 14.5 83.5 14.5h11v0zM355.001 342c0 25.333 -8.33301 46.833 -25 64.5
s-37.667 26.5 -63 26.5h-11c-26.667 0 -48 -8.83301 -64 -26.5s-24 -39.167 -24 -64.5v-149c0 -28 7.83301 -50 23.5 -66s37.5 -24 65.5 -24h9c27.333 0 49 8 65 24s24 38 24 66v149zM283.001 781l75 -51l-105 -152l-59 46z" />
    <glyph glyph-name="Ocircumflexsmall" unicode="&#xf7f4;" horiz-adv-x="506" 
d="M267 542c30 0 57.668 -4.83301 83.001 -14.5s47.166 -23.334 65.499 -41.001s32.833 -38.667 43.5 -63s16 -51.5 16 -81.5v-149c0 -30.667 -5.16699 -58.5 -15.5 -83.5s-24.666 -46 -42.999 -63s-40.333 -30.167 -66 -39.5s-53.834 -14 -84.501 -14h-9
c-31.333 0 -59.833 4.5 -85.5 13.5s-47.834 22.167 -66.501 39.5s-33 38.333 -43 63s-15 52.667 -15 84v149c0 30 5.16699 57.167 15.5 81.5s24.833 45.333 43.5 63s40.834 31.334 66.501 41.001s53.5 14.5 83.5 14.5h11v0zM355.001 342c0 25.333 -8.33301 46.833 -25 64.5
s-37.667 26.5 -63 26.5h-11c-26.667 0 -48 -8.83301 -64 -26.5s-24 -39.167 -24 -64.5v-149c0 -28 7.83301 -50 23.5 -66s37.5 -24 65.5 -24h9c27.333 0 49 8 65 24s24 38 24 66v149zM252.001 769l116 -102l-41 -60l-75 55l-73 -55l-41 63z" />
    <glyph glyph-name="Otildesmall" unicode="&#xf7f5;" horiz-adv-x="506" 
d="M267 542c30 0 57.668 -4.83301 83.001 -14.5s47.166 -23.334 65.499 -41.001s32.833 -38.667 43.5 -63s16 -51.5 16 -81.5v-149c0 -30.667 -5.16699 -58.5 -15.5 -83.5s-24.666 -46 -42.999 -63s-40.333 -30.167 -66 -39.5s-53.834 -14 -84.501 -14h-9
c-31.333 0 -59.833 4.5 -85.5 13.5s-47.834 22.167 -66.501 39.5s-33 38.333 -43 63s-15 52.667 -15 84v149c0 30 5.16699 57.167 15.5 81.5s24.833 45.333 43.5 63s40.834 31.334 66.501 41.001s53.5 14.5 83.5 14.5h11v0zM355.001 342c0 25.333 -8.33301 46.833 -25 64.5
s-37.667 26.5 -63 26.5h-11c-26.667 0 -48 -8.83301 -64 -26.5s-24 -39.167 -24 -64.5v-149c0 -28 7.83301 -50 23.5 -66s37.5 -24 65.5 -24h9c27.333 0 49 8 65 24s24 38 24 66v149zM197.001 660c-6 0 -12.9941 -3.66992 -20.9941 -11.0029s-15 -17.666 -21 -30.999l-47 42
c15.333 28.667 29.666 49.834 42.999 63.501s30.666 20.5 51.999 20.5c11.333 0 22.166 -2 32.499 -6s20 -8.16699 29 -12.5s17.167 -8.5 24.5 -12.5s13.333 -6 18 -6c12.667 0 21.5 4.83301 26.5 14.5l13.5 26.5l52 -35c-2.66699 -12 -6.33398 -23.5 -11.001 -34.5
s-10.334 -20.667 -17.001 -29s-14.334 -15.166 -23.001 -20.499s-18.667 -8 -30 -8c-12.667 0 -24.167 2 -34.5 6s-20 8.5 -29 13.5s-18 9.5 -27 13.5s-19.167 6 -30.5 6z" />
    <glyph glyph-name="Odieresissmall" unicode="&#xf7f6;" horiz-adv-x="506" 
d="M267 542c30 0 57.668 -4.83301 83.001 -14.5s47.166 -23.334 65.499 -41.001s32.833 -38.667 43.5 -63s16 -51.5 16 -81.5v-149c0 -30.667 -5.16699 -58.5 -15.5 -83.5s-24.666 -46 -42.999 -63s-40.333 -30.167 -66 -39.5s-53.834 -14 -84.501 -14h-9
c-31.333 0 -59.833 4.5 -85.5 13.5s-47.834 22.167 -66.501 39.5s-33 38.333 -43 63s-15 52.667 -15 84v149c0 30 5.16699 57.167 15.5 81.5s24.833 45.333 43.5 63s40.834 31.334 66.501 41.001s53.5 14.5 83.5 14.5h11v0zM355.001 342c0 25.333 -8.33301 46.833 -25 64.5
s-37.667 26.5 -63 26.5h-11c-26.667 0 -48 -8.83301 -64 -26.5s-24 -39.167 -24 -64.5v-149c0 -28 7.83301 -50 23.5 -66s37.5 -24 65.5 -24h9c27.333 0 49 8 65 24s24 38 24 66v149zM224.001 633h-107v107h107v-107zM390.001 633h-106v107h106v-107z" />
    <glyph glyph-name="Ugravesmall" unicode="&#xf7f9;" horiz-adv-x="531" 
d="M366 536h121v-337c0 -30.667 -5.16699 -58.334 -15.5 -83.001s-24.833 -45.667 -43.5 -63s-40.667 -30.666 -66 -39.999s-53 -14 -83 -14c-30.667 0 -59 4.66699 -85 14s-48.333 22.666 -67 39.999s-33.167 38.333 -43.5 63s-15.5 52.334 -15.5 83.001v337h121v-337
c0 -26.667 8.16699 -48.5 24.5 -65.5s38.166 -25.5 65.499 -25.5c26.667 0 47.834 8.16699 63.501 24.5s23.5 38.5 23.5 66.5v337zM239 786l86 -163l-60 -50l-102 150z" />
    <glyph glyph-name="Uacutesmall" unicode="&#xf7fa;" horiz-adv-x="531" 
d="M366 536h121v-337c0 -30.667 -5.16699 -58.334 -15.5 -83.001s-24.833 -45.667 -43.5 -63s-40.667 -30.666 -66 -39.999s-53 -14 -83 -14c-30.667 0 -59 4.66699 -85 14s-48.333 22.666 -67 39.999s-33.167 38.333 -43.5 63s-15.5 52.334 -15.5 83.001v337h121v-337
c0 -26.667 8.16699 -48.5 24.5 -65.5s38.166 -25.5 65.499 -25.5c26.667 0 47.834 8.16699 63.501 24.5s23.5 38.5 23.5 66.5v337zM295 771l75 -51l-105 -152l-59 46z" />
    <glyph glyph-name="Ucircumflexsmall" unicode="&#xf7fb;" horiz-adv-x="531" 
d="M366 536h121v-337c0 -30.667 -5.16699 -58.334 -15.5 -83.001s-24.833 -45.667 -43.5 -63s-40.667 -30.666 -66 -39.999s-53 -14 -83 -14c-30.667 0 -59 4.66699 -85 14s-48.333 22.666 -67 39.999s-33.167 38.333 -43.5 63s-15.5 52.334 -15.5 83.001v337h121v-337
c0 -26.667 8.16699 -48.5 24.5 -65.5s38.166 -25.5 65.499 -25.5c26.667 0 47.834 8.16699 63.501 24.5s23.5 38.5 23.5 66.5v337zM265 769l116 -102l-41 -60l-75 55l-73 -55l-41 63z" />
    <glyph glyph-name="Udieresissmall" unicode="&#xf7fc;" horiz-adv-x="531" 
d="M366 536h121v-337c0 -30.667 -5.16699 -58.334 -15.5 -83.001s-24.833 -45.667 -43.5 -63s-40.667 -30.666 -66 -39.999s-53 -14 -83 -14c-30.667 0 -59 4.66699 -85 14s-48.333 22.666 -67 39.999s-33.167 38.333 -43.5 63s-15.5 52.334 -15.5 83.001v337h121v-337
c0 -26.667 8.16699 -48.5 24.5 -65.5s38.166 -25.5 65.499 -25.5c26.667 0 47.834 8.16699 63.501 24.5s23.5 38.5 23.5 66.5v337zM236 633h-107v107h107v-107zM402 633h-106v107h106v-107z" />
    <glyph glyph-name="Yacutesmall" unicode="&#xf7fd;" horiz-adv-x="498" 
d="M158 534l91 -181l94 181h138l-172 -314v-220h-120l1 220l-171 314h139zM275 771l75 -51l-105 -152l-59 46z" />
    <glyph glyph-name="Ydieresissmall" unicode="&#xf7ff;" horiz-adv-x="498" 
d="M158 534l91 -181l94 181h138l-172 -314v-220h-120l1 220l-171 314h139zM217 633h-107v107h107v-107zM383 633h-106v107h106v-107z" />
    <glyph glyph-name="ffi" unicode="&#xfb03;" horiz-adv-x="792" 
d="M243 736c32 0 61.8369 -5.50098 89.5039 -16.501s53.167 -24.833 76.5 -41.5c20 21.333 40.667 36.833 62 46.5s46.666 14.5 75.999 14.5c14 0 29.5 -1.66699 46.5 -5s34.333 -7.66602 52 -12.999s35.167 -11.166 52.5 -17.499l47 -17.5l-29 -104
c-30.667 15.333 -61.834 26.333 -93.501 33s-59.834 10 -84.501 10c-32 0 -48 -17.667 -48 -53v-82h77v-86h-79v-404h-120v404h-75v86h75v55v33c-19.333 12.667 -40.333 23.834 -63 33.501s-43.334 14.5 -62.001 14.5c-16.667 0 -29 -2.16699 -37 -6.5
s-12 -15.833 -12 -34.5v-95h77v-86h-77v-404h-120v404h-76v86h76v88c0 53.333 14.833 92.666 44.5 117.999s71.167 38.666 124.5 39.999zM613.004 489.999h122v-490h-122v490z" />
    <glyph glyph-name="ffl" unicode="&#xfb04;" horiz-adv-x="797" 
d="M243 736c32 0 60.998 -4.8291 86.998 -14.4961s50.667 -22.5 74 -38.5c17.333 20.667 35.333 34.667 54 42s41.334 11 68.001 11c24 0 50.833 -5.16699 80.5 -15.5s57.834 -22.166 84.501 -35.499h45v-685h-121v610c-13.333 7.33301 -28.333 13 -45 17
s-31.334 6 -44.001 6c-15.333 0 -26.833 -6 -34.5 -18s-11.5 -25.667 -11.5 -41v-84h85v-87h-86v-403h-118v403h-76v87h77v71c0 5.33301 0.166992 12.666 0.5 21.999s1.16602 16.666 2.49902 21.999c-21.333 7.33301 -42.166 12.666 -62.499 15.999s-40.166 5 -59.499 5
c-16.667 0 -29 -2.16699 -37 -6.5s-12 -15.833 -12 -34.5v-95h77v-86h-77v-404h-120v404h-76v86h76v88c0 53.333 14.833 92.666 44.5 117.999s71.167 38.666 124.5 39.999z" />
    <glyph glyph-name=".null" horiz-adv-x="0" 
 />
    <glyph glyph-name="nonmarkingreturn" horiz-adv-x="218" 
 />
    <glyph glyph-name="glyph57" horiz-adv-x="595" 
d="M471 44c11.333 -17.333 24.3359 -27.168 39.0029 -29.501s32 -3.5 52 -3.5v-90c-20.667 0 -39.334 0.333008 -56.001 1s-32 2.83398 -46 6.50098s-27 9.5 -39 17.5s-23.333 19 -34 33l-22 27c-12.667 -3.33301 -27.167 -5.83301 -43.5 -7.5s-30.5 -2.5 -42.5 -2.5
c-34.667 0 -66.334 4.33301 -95.001 13s-53.334 21.667 -74.001 39s-36.834 39 -48.501 65s-17.5 56.333 -17.5 91v279c0 33.333 6.16699 63 18.5 89s29.5 47.667 51.5 65s47.667 30.5 77 39.5s61 13.5 95 13.5c36.667 0 69.667 -4 99 -12s54.5 -20.333 75.5 -37
s37.167 -38 48.5 -64s17 -57.333 17 -94v-266c0 -13.333 -1.5 -27.5 -4.5 -42.5s-7.33301 -29.5 -13 -43.5s-12.667 -26.833 -21 -38.5s-18.166 -21.167 -29.499 -28.5zM279.003 105.998h14.502c6.33301 0 11.5 0.666992 15.5 2l-65 90l76 59l67 -101
c7.33301 15.333 11.666 30.5 12.999 45.5s2 32.167 2 51.5v231c0 20 -2.33301 36.167 -7 48.5s-11.834 22 -21.501 29s-21.834 11.833 -36.501 14.5s-31.667 4 -51 4c-20.667 0 -38.5 -1.33301 -53.5 -4s-27.167 -7.5 -36.5 -14.5s-16.333 -16.667 -21 -29
s-7 -28.5 -7 -48.5v-256c0 -40 8.83301 -70.333 26.5 -91s45.834 -31 84.501 -31z" />
    <glyph glyph-name="Q.alt" horiz-adv-x="564" 
d="M333 -59l194.001 -42.999l-13 -93l-292 52v125c-26 3.33301 -50.333 10 -73 20s-42.167 22.833 -58.5 38.5s-29.333 34 -39 55s-14.5 44.5 -14.5 70.5v339c0 32 6.66699 59.5 20 82.5s31 42.167 53 57.5s47 26.666 75 33.999s56.333 11 85 11h13
c73.333 0 130.166 -15.5 170.499 -46.5s60.5 -76.833 60.5 -137.5v-340c0 -24 -5 -47 -15 -69s-23.333 -41.5 -40 -58.5s-36 -30.667 -58 -41s-44.667 -15.5 -68 -15.5v-41zM158.001 166.001c0 -10.667 2.83496 -20.6699 8.50195 -30.0029s13.167 -17.166 22.5 -23.499
s19.666 -11.333 30.999 -15s22.333 -5.5 33 -5.5h50c31.333 0 54.166 5.66699 68.499 17s21.5 33 21.5 65v331c0 14 -3.33301 25.833 -10 35.5s-15.167 17.334 -25.5 23.001s-22 9.83398 -35 12.501s-26.167 4 -39.5 4h-13c-36 0 -63.667 -5 -83 -15s-29 -30 -29 -60v-339v0
z" />
    <glyph glyph-name="y.alt" horiz-adv-x="443" 
d="M224 241l75 249h128l-232 -721l-112 45l75 228l-142 448h131z" />
    <glyph glyph-name="k.alt" horiz-adv-x="481" 
d="M172 710l-0.00195312 -384.999l185 192l69 -79l-169 -169c22.667 -10.667 42.834 -24.667 60.501 -42s33.5 -35.833 47.5 -55.5s25.833 -39.5 35.5 -59.5s17.667 -38.167 24 -54.5s11.166 -29.833 14.499 -40.5s5 -16.334 5 -17.001h-131
c-6 20.667 -13.333 40.667 -22 60c-7.33301 16.667 -16.166 34 -26.499 52s-22.166 33.333 -35.499 46c-26.667 26 -45.667 37.333 -57 34v-192h-114v710h114z" />
    <glyph glyph-name="g.alt" horiz-adv-x="480" 
d="M165 289c0 -21.333 6 -36 18 -44s27.667 -12 47 -12c18 0 33.333 4 46 12s19 22.667 19 44v64c0 19.333 -6.5 32.666 -19.5 39.999s-28.167 11 -45.5 11c-19.333 0 -35 -3.66699 -47 -11s-18 -20.666 -18 -39.999v-64v0zM96 3
c-16 7.33301 -27.501 17.9961 -34.501 31.9961s-10.5 30.333 -10.5 49c0 16 6.5 31.333 19.5 46s27.5 25.334 43.5 32.001c-11.333 5.33301 -21.166 13.166 -29.499 23.499s-15.166 22 -20.499 35s-9.33301 26.5 -12 40.5s-4 27.333 -4 40v50c0 27.333 4.5 50.833 13.5 70.5
s21.667 35.834 38 48.501s35.666 22 57.999 28s46.5 9 72.5 9c17.333 0 32 -1.5 44 -4.5s26.667 -8.5 44 -16.5l109 49l26 -82l-73 -28c10 -10.667 17.667 -22.334 23 -35.001s8 -25 8 -37v-62c0 -29.333 -5 -54.166 -15 -74.499s-23.5 -36.833 -40.5 -49.5
s-37 -21.834 -60 -27.501s-47.833 -8.5 -74.5 -8.5c-7.33301 0 -14.833 -0.166992 -22.5 -0.5s-17.167 1.16699 -28.5 4.5c-5.33301 -2.66699 -9 -7.66699 -11 -15s-3 -12.666 -3 -15.999c0 -12.667 3.66699 -21.667 11 -27s15.666 -9.66602 24.999 -12.999l227 -76v-80
c0 -49.333 -15.167 -86.666 -45.5 -111.999s-69.833 -38 -118.5 -38h-53c-49.333 0 -88.666 13 -117.999 39s-43.666 63 -42.999 111c0.666992 7.33301 2.66699 14.5 6 21.5s5.66602 13.167 6.99902 18.5l102 -22v-3c0 -1.33301 -0.166992 -2.16602 -0.5 -2.49902
s-0.5 -0.833008 -0.5 -1.5c0 -24.667 6.66699 -40.667 20 -48s31.333 -11 54 -11h26c13.333 0 23.5 4.83301 30.5 14.5s11.167 22.167 12.5 37.5v26z" />
    <glyph glyph-name="e.alt" horiz-adv-x="445" 
d="M241 101c20.667 0 41.833 5.66797 63.5 17.001s39.5 25 53.5 41l60 -78c-24 -24.667 -51.333 -45.334 -82 -62.001s-63 -25 -97 -25c-29.333 0 -56.333 3.83301 -81 11.5s-46 19 -64 34s-32 33.5 -42 55.5s-15 47.667 -15 77v173c0 26 5 49 15 69s23.5 36.833 40.5 50.5
s37.167 24.167 60.5 31.5s48 11 74 11c52.667 0 95.5 -14 128.5 -42s49.5 -68 49.5 -120v-124h-247v-49c0 -24.667 7.66699 -42.667 23 -54s35.333 -17 60 -17zM226.999 397.001c-24.667 0 -42.167 -5 -52.5 -15s-15.5 -27 -15.5 -51v-27h126v38
c0 21.333 -5.66699 35.833 -17 43.5s-25 11.5 -41 11.5z" />
    <glyph glyph-name="germandbls.alt" horiz-adv-x="586" 
d="M207 0l-116.003 0.00195312v382h-58v108h58v73c0 32 3.33301 59.167 10 81.5s17.334 40.166 32.001 53.499s33.334 23 56.001 29s50.334 9 83.001 9c132.667 0 199 -65.333 199 -196l-62 -138c42 -16.667 72.333 -39.167 91 -67.5s28 -65.5 28 -111.5v-74
c0 -58.667 -15 -101 -45 -127s-74.333 -39 -133 -39c-20 0 -40.5 3.16699 -61.5 9.5s-39.5 14.166 -55.5 23.499l40 101c9.33301 -9.33301 21 -16.5 35 -21.5s28 -7.5 42 -7.5c21.333 0 36.333 4.83301 45 14.5s13 25.834 13 48.501v74c0 21.333 -4 38.666 -12 51.999
s-18.833 24 -32.5 32s-29.667 13.667 -48 17s-38.166 5.33301 -59.499 6l91 215c0 23.333 -6 42.333 -18 57s-29.667 22 -53 22c-24.667 0 -42.334 -4.5 -53.001 -13.5s-16 -25.5 -16 -49.5v-563z" />
    <glyph glyph-name="germandbls.alt2" horiz-adv-x="531" 
d="M180 0l-115.005 0.00195312v563c0 32 3.33301 59 10 81s17.334 39.833 32.001 53.5s33.5 23.5 56.5 29.5s50.833 9 83.5 9s61.834 -5.16699 87.501 -15.5s47.334 -25 65.001 -44s31.167 -41.833 40.5 -68.5s14 -56.334 14 -89.001
c-9.33301 -8.66699 -19 -18.834 -29 -30.501s-19.167 -23.834 -27.5 -36.501s-15.166 -25.667 -20.499 -39s-8 -26 -8 -38c0 -16 2.66699 -28 8 -36s14.666 -16.667 27.999 -26c30 -19.333 53.5 -41.166 70.5 -65.499s25.5 -54.5 25.5 -90.5
c0 -58.667 -13.5 -101.334 -40.5 -128.001s-69.5 -41 -127.5 -43c-10 0 -20.667 0.666992 -32 2s-22.666 3.33301 -33.999 6s-22.333 5.83398 -33 9.50098s-20 7.83398 -28 12.501l44 113c9.33301 -10 21.833 -18.667 37.5 -26s30.834 -11 45.501 -11
c17.333 0 31.333 5.83301 42 17.5s16 26.5 16 44.5c0 10 -1.5 18.833 -4.5 26.5s-7.33301 14.5 -13 20.5s-12.167 11.833 -19.5 17.5l-23 18.5c-28 17.333 -49.333 36.333 -64 57s-22 47.667 -22 81c0 34 8 63.167 24 87.5s36 49.166 60 74.499c0 23.333 -6.66699 44 -20 62
s-32 27 -56 27c-24.667 0 -43 -4.5 -55 -13.5s-18 -25.5 -18 -49.5v-563z" />
    <glyph glyph-name="zero.small" horiz-adv-x="531" 
d="M265 555c68 0 119.665 -17.333 154.998 -52s53 -86 53 -154v-163c0 -66.667 -18.167 -117.167 -54.5 -151.5s-87.5 -51.5 -153.5 -51.5c-67.333 0 -118.666 17 -153.999 51s-53 84.667 -53 152v163c0 67.333 17.333 118.5 52 153.5s86.334 52.5 155.001 52.5z
M351.998 349c0 32.667 -6.5 57.166 -19.5 73.499s-35.5 24.5 -67.5 24.5s-54.5 -8.33301 -67.5 -25s-19.5 -41 -19.5 -73v-163c0 -31.333 6.66699 -54.666 20 -69.999s35.666 -23 66.999 -23c30.667 0 52.834 7.5 66.501 22.5s20.5 38.5 20.5 70.5v163z" />
    <glyph glyph-name="one.small" horiz-adv-x="336" 
d="M143 430h-106v110h227v-540h-121v430z" />
    <glyph glyph-name="two.small" horiz-adv-x="520" 
d="M352 207c-13.333 -10 -26.166 -18.832 -38.499 -26.499s-23.333 -15.167 -33 -22.5s-17.334 -14.833 -23.001 -22.5s-8.5 -16.5 -8.5 -26.5h227v-109h-387v42c0 28 2.83301 52.667 8.5 74s14.834 41.166 27.501 59.499s29.167 36.166 49.5 53.499s44.833 36.333 73.5 57
c30 20 50.5 36.167 61.5 48.5s16.5 23.5 16.5 33.5c0 17.333 -3.83301 31.5 -11.5 42.5s-18.834 16.5 -33.501 16.5c-14 0 -27.667 -2.5 -41 -7.5s-26 -11.5 -38 -19.5s-22.833 -16.5 -32.5 -25.5s-17.5 -17.5 -23.5 -25.5l-84 87c11.333 14.667 24.833 29 40.5 43
s32.667 26.333 51 37s37.5 19.167 57.5 25.5s39.333 9.5 58 9.5c28.667 0 55 -2.5 79 -7.5s44.5 -13.333 61.5 -25s30.167 -27.167 39.5 -46.5s14 -43.666 14 -72.999c0 -23.333 -2.5 -44 -7.5 -62s-12.167 -34.5 -21.5 -49.5s-21 -28.833 -35 -41.5
s-29.667 -25.667 -47 -39z" />
    <glyph glyph-name="three.small" horiz-adv-x="504" 
d="M437 376c0 -23.333 -7.3291 -44.0029 -21.9961 -62.0029s-32 -30.667 -52 -38c9.33301 -2.66699 18.666 -7.33398 27.999 -14.001s17.833 -14.5 25.5 -23.5s13.834 -19.167 18.501 -30.5s7 -23.666 7 -36.999v-41c0 -25.333 -5.66699 -46.833 -17 -64.5
s-26.333 -32 -45 -43s-39.834 -19 -63.501 -24s-47.834 -7.5 -72.501 -7.5c-42 0 -79.333 10.333 -112 31s-57.334 51 -74.001 91l92 62c1.33301 -10 4.83301 -19.667 10.5 -29s12.5 -17.833 20.5 -25.5s16.667 -13.667 26 -18s19 -6.5 29 -6.5c9.33301 0 19 0.5 29 1.5
s19.167 3 27.5 6s15.166 7.33301 20.499 13s8 13.167 8 22.5v41c0 7.33301 -2.66699 13.833 -8 19.5s-12 10.334 -20 14.001s-16.667 6.33398 -26 8.00098s-18 2.5 -26 2.5h-75v104h71c8.66699 0 17.667 0.333008 27 1s17.666 2.33398 24.999 5.00098
s13.5 6.83398 18.5 12.501s7.5 13.167 7.5 22.5v33c0 8 -2.16699 15 -6.5 21s-9.83301 10.667 -16.5 14s-14.334 5.83301 -23.001 7.5s-17 2.5 -25 2.5c-9.33301 0 -18.333 -2.16699 -27 -6.5s-16.5 -10 -23.5 -17s-13.167 -14.833 -18.5 -23.5s-9.66602 -17 -12.999 -25
l-85 70c19.333 33.333 46 59.5 80 78.5s70 28.5 108 28.5c24 0 46.5 -2.66699 67.5 -8s39.333 -13.833 55 -25.5s27.834 -26.334 36.501 -44.001s13 -38.5 13 -62.5v-36z" />
    <glyph glyph-name="four.small" horiz-adv-x="514" 
d="M392 232h81v-108h-81v-124h-120v124h-217v60l153 356h184v-308zM272 424h-2l-73 -192h75v192z" />
    <glyph glyph-name="five.small" horiz-adv-x="516" 
d="M274 356c29.333 0 55.002 -2.50098 77.002 -7.50098s40.5 -13.167 55.5 -24.5s26.167 -26.666 33.5 -45.999s11 -43.666 11 -72.999v-54c0 -58 -16.333 -99.667 -49 -125s-77.667 -38 -135 -38c-54.667 0 -97.334 11.167 -128.001 33.5s-50.334 60.166 -59.001 113.499
l121 36c-0.666992 -27.333 3.33301 -47.333 12 -60s26.667 -19 54 -19c24 0 40.667 3.83301 50 11.5s14 23.5 14 47.5v44c0 24 -6.16699 38.833 -18.5 44.5s-30.5 8.5 -54.5 8.5h-158l27 292h291v-109h-183l-3 -75h42v0z" />
    <glyph glyph-name="six.small" horiz-adv-x="499" 
d="M271 366c54 0 95.834 -11.834 125.501 -35.501s44.5 -62.5 44.5 -116.5v-61c0 -56 -16.167 -97.5 -48.5 -124.5s-76.5 -40.5 -132.5 -40.5c-56.667 0 -102.167 13.333 -136.5 40s-51.5 68.334 -51.5 125.001v229c0 26 4.5 49.5 13.5 70.5s21.333 39 37 54
s34.5 26.5 56.5 34.5s46 12 72 12c35.333 0 65.166 -5.16699 89.499 -15.5s48.833 -27.5 73.5 -51.5l-54 -86c-14 12 -30.167 22.5 -48.5 31.5s-35.5 13.5 -51.5 13.5c-21.333 0 -38 -5.5 -50 -16.5s-18 -26.5 -18 -46.5v-50c12 10 23.833 18.167 35.5 24.5
s26.167 9.5 43.5 9.5zM319.001 196.999c0 39.333 -19.667 59 -59 59c-23.333 0 -40.5 -6.5 -51.5 -19.5s-16.5 -30.5 -16.5 -52.5v-31c0 -20 6.33301 -34.333 19 -43s29 -13 49 -13s34.833 4.16699 44.5 12.5s14.5 22.833 14.5 43.5v44z" />
    <glyph glyph-name="seven.small" horiz-adv-x="402" 
d="M19 540h360l-177 -540h-126l139 432h-196v108z" />
    <glyph glyph-name="eight.small" horiz-adv-x="490" 
d="M415 375c0 -11.333 -2.33301 -21.6689 -7 -31.002s-11 -17.833 -19 -25.5s-17 -14.5 -27 -20.5s-20 -11 -30 -15c25.333 -7.33301 47.166 -19.833 65.499 -37.5s27.5 -39.167 27.5 -64.5v-60c0 -48 -16.833 -82.333 -50.5 -103s-77.5 -31 -131.5 -31
c-55.333 0 -98.833 10.167 -130.5 30.5s-47.5 54.833 -47.5 103.5v55c0 12.667 2.16699 24.834 6.5 36.501s10.5 22.334 18.5 32.001s17.5 17.667 28.5 24s23.167 10.5 36.5 12.5c-23.333 9.33301 -42.666 20.333 -57.999 33s-23 31.667 -23 57v54
c0 46 14.833 79.667 44.5 101s71.167 32 124.5 32c52.667 0 94.5 -10.667 125.5 -32s46.5 -55 46.5 -101v-50v0zM303 169.997c0 22.667 -3.83203 38.501 -11.499 47.501s-23.167 13.5 -46.5 13.5c-22.667 0 -38.334 -4.83301 -47.001 -14.5s-13 -25.167 -13 -46.5v-33
c0 -22.667 4.5 -37.334 13.5 -44.001s24.5 -10 46.5 -10c21.333 0 36.333 3.5 45 10.5s13 21.167 13 42.5v34zM196.001 375.998c0 -18.667 3.5 -31.833 10.5 -39.5s19.833 -11.5 38.5 -11.5c19.333 0 32.166 3.5 38.499 10.5s9.5 20.5 9.5 40.5v27
c0 18.667 -3.16699 31.834 -9.5 39.501s-19.166 11.5 -38.499 11.5s-32.333 -3.83301 -39 -11.5s-10 -20.834 -10 -39.501v-27v0z" />
    <glyph glyph-name="nine.small" horiz-adv-x="499" 
d="M246 557c57.333 0 103.001 -13.998 137.001 -41.998s51 -70.667 51 -128v-223c0 -58.667 -16.667 -102.667 -50 -132s-79.333 -44 -138 -44c-30.667 0 -61.334 5.66699 -92.001 17s-57 27.666 -79 48.999l54 93c14.667 -14 32.334 -26.667 53.001 -38s41 -17 61 -17
c22.667 0 40 6.16699 52 18.5s18 30.166 18 53.499v38c-12.667 -10 -25.334 -16.5 -38.001 -19.5s-26.667 -4.5 -42 -4.5c-58.667 0 -102.5 13.5 -131.5 40.5s-43.5 69.833 -43.5 128.5v40c0 56.667 16.667 99.167 50 127.5s79.333 42.5 138 42.5zM313.001 386.002
c0 22 -5.5 37.833 -16.5 47.5s-27.833 14.5 -50.5 14.5c-23.333 0 -40.5 -4.66699 -51.5 -14s-16.5 -25.333 -16.5 -48v-43c0 -23.333 5.5 -39 16.5 -47s28.167 -12 51.5 -12c22.667 0 39.5 3.83301 50.5 11.5s16.5 23.5 16.5 47.5v43z" />
    <glyph glyph-name="h.alt" horiz-adv-x="499" 
d="M427 493v-492.999h-120v385h-41c-12.667 0 -24.5 -3 -35.5 -9s-20.5 -13.667 -28.5 -23s-14.167 -19.833 -18.5 -31.5s-6.5 -23.167 -6.5 -34.5v-287h-119v710h119v-276c15.333 19.333 31.833 34.166 49.5 44.499s38.167 15.5 61.5 15.5z" />
    <glyph glyph-name="n.alt" horiz-adv-x="500" 
d="M428 490v-489.999h-121v379h-40c-12.667 0 -24.5 -3 -35.5 -9s-20.5 -13.667 -28.5 -23s-14.167 -19.833 -18.5 -31.5s-6.5 -23.167 -6.5 -34.5v-281h-120v490h107l11 -63c14 20 29.333 35.167 46 45.5s39 16.166 67 17.499h139z" />
    <glyph glyph-name="E.alt" horiz-adv-x="530" 
d="M206 490c0 -28 6.16602 -48.999 18.499 -62.999s32.5 -21 60.5 -21h34v-106h-39c-25.333 -1.33301 -47 -7.66602 -65 -18.999s-27 -29.666 -27 -54.999v-64c0 -11.333 2.5 -21 7.5 -29s11.667 -14.5 20 -19.5s17.833 -8.5 28.5 -10.5s22 -3 34 -3h47
c23.333 0 43.166 5.83301 59.499 17.5s31.5 27.834 45.5 48.501l88 -47c-22 -42 -47.833 -74 -77.5 -96s-67.834 -33 -114.501 -33h-47c-26.667 0 -53.667 4 -81 12s-51.833 19.333 -73.5 34s-39.334 32.667 -53.001 54s-20.5 45.333 -20.5 72v67
c0 12.667 3.16699 25.667 9.5 39s14.5 25.666 24.5 36.999s21.167 21.333 33.5 30s24.5 14.667 36.5 18c-14.667 4.66699 -27.667 11.667 -39 21s-20.666 20.333 -27.999 33s-13 26.5 -17 41.5s-6 29.833 -6 44.5v35c0 27.333 6.33301 51.166 19 71.499
s29.334 37.166 50.001 50.499s44.334 23.5 71.001 30.5s53.667 10.5 81 10.5h14c39.333 0 74.166 -8.33301 104.499 -25s55.833 -42 76.5 -76l-81 -69c-11.333 17.333 -25.666 31.666 -42.999 42.999s-36.666 17 -57.999 17h-14c-20 0 -38.167 -4 -54.5 -12
s-24.5 -21.667 -24.5 -41v-38z" />
    <glyph glyph-name="a.alt" horiz-adv-x="445" 
d="M239 512c58 0 98.334 -13.1699 121.001 -39.5029s34 -68.5 34 -126.5v-346h-91l-12 62c-14.667 -27.333 -32 -45.666 -52 -54.999s-45 -14 -75 -14c-24.667 0 -45.167 2.83301 -61.5 8.5s-29.333 14.334 -39 26.001s-16.5 26.5 -20.5 44.5s-6 39 -6 63v25
c0 28.667 6.83301 52.334 20.5 71.001s31.667 33.5 54 44.5s47.666 19 75.999 24s56.833 7.83301 85.5 8.5v38c0 12 -0.333008 21.833 -1 29.5s-2.5 13.834 -5.5 18.501s-7.66699 8 -14 10s-15.166 3 -26.499 3c-9.33301 0 -19.5 -1.16699 -30.5 -3.5s-22 -5.33301 -33 -9
s-21.5 -7.83398 -31.5 -12.501s-18.667 -9.66699 -26 -15l-44 84c23.333 19.333 51.166 34.333 83.499 45s63.833 16 94.5 16zM270.001 236.997c-14 -0.666992 -27.8359 -2.50098 -41.5029 -5.50098s-25.667 -7.5 -36 -13.5s-18.666 -13.667 -24.999 -23s-9.5 -21 -9.5 -35
v-19c0 -28 13.333 -42 40 -42c8.66699 0 17.334 2.5 26.001 7.5s16.334 11.333 23.001 19s12.167 16.334 16.5 26.001s6.5 19.167 6.5 28.5v57z" />
    <glyph glyph-name="Ssmall.alt" horiz-adv-x="474" 
d="M419 239v-79c0 -27.333 -5.16699 -51.5 -15.5 -72.5s-24.333 -38.833 -42 -53.5s-38.167 -25.667 -61.5 -33s-48 -11 -74 -11c-73.333 0 -136.333 32.333 -189 97l76 86c6.66699 -10 13.834 -19.5 21.501 -28.5s16 -17.167 25 -24.5s18.667 -13.166 29 -17.499
s21.5 -6.5 33.5 -6.5c21.333 0 39.166 3.83301 53.499 11.5s21.5 22.834 21.5 45.501v36l-228 75v111c0 24 4.5 45.833 13.5 65.5s21.833 36.5 38.5 50.5s36.5 24.833 59.5 32.5s48.833 11.5 77.5 11.5c32 0 61.5 -8.33301 88.5 -25s53.167 -36.667 78.5 -60l-73 -81
c-11.333 15.333 -25 28.666 -41 39.999s-34.333 17 -55 17c-19.333 0 -35.333 -4.83301 -48 -14.5s-19 -21.834 -19 -36.501v-59z" />
    <glyph glyph-name="s.alt" horiz-adv-x="408" 
d="M378 220v-69c0 -52 -14.833 -92 -44.5 -120s-70.167 -42 -121.5 -42c-35.333 0 -68.5 7.5 -99.5 22.5s-57.167 36.5 -78.5 64.5l71 80c5.33301 -8 12.333 -15.833 21 -23.5s18.334 -14.667 29.001 -21s21.667 -11.333 33 -15s21.666 -5.5 30.999 -5.5
c17.333 0 28.5 3.5 33.5 10.5s7.5 16.833 7.5 29.5v36l-200 96v86c0 48 14.667 85.167 44 111.5s68 39.5 116 39.5c28.667 0 56.834 -7.33301 84.501 -22s51.5 -33 71.5 -55l-69 -79c-10.667 12.667 -22.834 24.167 -36.501 34.5s-28.167 15.5 -43.5 15.5
c-32.667 0 -49 -15 -49 -45v-41z" />
    <glyph glyph-name="S.alt" horiz-adv-x="503" 
d="M463 286l-0.00195312 -109c0 -30 -5.5 -56.5 -16.5 -79.5s-26 -42.333 -45 -58s-41.167 -27.5 -66.5 -35.5s-52.666 -12 -81.999 -12c-43.333 0 -84.666 8.66699 -123.999 26s-73.666 46 -102.999 86l94 74c11.333 -22 26.833 -40.167 46.5 -54.5
s46.167 -21.5 79.5 -21.5c29.333 0 52.166 5.33301 68.499 16s24.5 30.667 24.5 60v57l-285 165v109c0 30.667 5.33301 57.334 16 80.001s25.5 41.5 44.5 56.5s41.667 26.167 68 33.5s54.833 11 85.5 11c15.333 0 31.5 -1.33301 48.5 -4s34.5 -7.66699 52.5 -15
s36 -17.5 54 -30.5s36 -29.5 54 -49.5l-82 -83c-21.333 23.333 -43.5 41.166 -66.5 53.499s-46.167 18.5 -69.5 18.5c-26 0 -46 -5 -60 -15s-21 -27.667 -21 -53v-69z" />
    <glyph glyph-name="ft" horiz-adv-x="621" 
d="M509 102c9.33301 0 20.667 1.33301 34 4s27.666 7.66699 42.999 15l30 -81c-9.33301 -6.66699 -19.833 -12.667 -31.5 -18s-23.167 -9.83301 -34.5 -13.5s-22.333 -6.5 -33 -8.5s-20 -3 -28 -3c-25.333 0 -46.5 2.16699 -63.5 6.5s-30.5 11.5 -40.5 21.5
s-17.167 23 -21.5 39s-6.5 35.333 -6.5 58v283h-69v85h69v121c-18 9.33301 -35.667 17.166 -53 23.499s-37.666 9.5 -60.999 9.5c-14.667 0 -26.5 -3.66699 -35.5 -11s-13.5 -18.666 -13.5 -33.999v-109h70v-86h-70v-404h-120v404h-76v86h76v107
c0 53.333 14.833 92.166 44.5 116.499s71.167 36.5 124.5 36.5c12 0 27.833 -1.66699 47.5 -5s40.5 -8 62.5 -14s44.167 -13 66.5 -21s42.166 -16.333 59.499 -25v-195h98v-85h-98v-267c0 -11.333 2.83301 -20.166 8.5 -26.499s12.834 -9.5 21.501 -9.5z" />
    <glyph glyph-name="glyph330" horiz-adv-x="535" 
d="M81 -71l342 834h85l-338 -834h-89zM292 690c32.667 0 63.166 -4.66699 91.499 -14s53 -22.833 74 -40.5s37.667 -39.334 50 -65.001s18.5 -54.834 18.5 -87.501v-285c0 -34 -6 -63.833 -18 -89.5s-28.5 -47.334 -49.5 -65.001s-45.667 -31 -74 -40
s-59.166 -13.5 -92.499 -13.5h-13c-34 0 -65.333 4.33301 -94 13s-53.5 21.834 -74.5 39.501s-37.333 39.5 -49 65.5s-17.5 56 -17.5 90v285c0 32 6.16699 60.833 18.5 86.5s29 47.334 50 65.001s45.667 31.334 74 41.001s58.833 14.5 91.5 14.5h14v0zM401.999 482
c0 31.333 -10.499 55.5 -31.499 72.5s-47.167 25.5 -78.5 25.5h-14c-31.333 0 -57.5 -8.33301 -78.5 -25s-31.5 -40.667 -31.5 -72v-285c0 -34 10.167 -58.833 30.5 -74.5s47.166 -23.5 80.499 -23.5h13c34 0 60.833 7.83301 80.5 23.5s29.5 40.5 29.5 74.5v284z" />
    <glyph glyph-name="glyph331" horiz-adv-x="443" 
d="M231 500c26 0 50.668 -3.66797 74.001 -11.001s43.833 -18.333 61.5 -33s31.5 -32.5 41.5 -53.5s15 -45.5 15 -73.5v-167c0 -28 -4.83301 -52.667 -14.5 -74s-23 -39.166 -40 -53.499s-37 -25.333 -60 -33s-48.167 -11.5 -75.5 -11.5c-28 0 -54 3.66699 -78 11
s-44.833 18.333 -62.5 33s-31.334 32.667 -41.001 54s-14.5 46 -14.5 74v167c0 28 5 52.5 15 73.5s23.667 38.833 41 53.5s37.833 25.667 61.5 33s49.167 11 76.5 11zM299.001 329.999c0 25.333 -5.16504 41.668 -15.498 49.001s-27.833 11 -52.5 11
c-22.667 0 -40 -4.83301 -52 -14.5s-18 -25.167 -18 -46.5v-166c0 -26.667 5.16699 -43.834 15.5 -51.501s29.166 -11.5 56.499 -11.5c21.333 0 37.666 4.66699 48.999 14s17 25.333 17 48v168zM70.0029 -75.999l251 627h61l-246 -627h-66z" />
    <glyph glyph-name="glyph333" horiz-adv-x="688" 
d="M228 505c51.333 0 87.8311 -13.832 109.498 -41.499s32.5 -75.167 32.5 -142.5l-70 -236c-8.66699 -20 -18.334 -36 -29.001 -48s-21.834 -21.167 -33.501 -27.5s-23.167 -10.666 -34.5 -12.999s-22.666 -3.5 -33.999 -3.5c-48 0 -82 11.167 -102 33.5
s-30 57.5 -30 105.5v117l236 39v49c0 23.333 -4.33301 39.666 -13 48.999s-25 14 -49 14c-8.66699 0 -18.834 -1.66699 -30.501 -5s-23.167 -7.5 -34.5 -12.5s-22.166 -10.333 -32.499 -16s-18.833 -11.167 -25.5 -16.5l-43 86c11.333 8.66699 24.333 17.167 39 25.5
s30.334 15.666 47.001 21.999s33.334 11.5 50.001 15.5s32.334 6 47.001 6zM273.998 205.001l-115.999 -18.999v-48c0 -16.667 3.66699 -27.334 11 -32.001s19.666 -7 36.999 -7s33 5.5 47 16.5s21 25.833 21 44.5v45zM481.999 96.002c21.333 0 39.832 5.5 55.499 16.5
s32.167 25.5 49.5 43.5l64 -81c-26 -28 -52.5 -48.833 -79.5 -62.5s-59.167 -20.5 -96.5 -20.5c-64.667 0 -113.167 13.667 -145.5 41s-48.5 73.333 -48.5 138l11 136c0 28 3.5 53.833 10.5 77.5s17.667 44 32 61s32.166 30.333 53.499 40s46.333 14.5 75 14.5
c26 0 50 -4 72 -12s40.833 -19.333 56.5 -34s27.834 -32.5 36.501 -53.5s13 -44.5 13 -70.5v-74l-246 -38v-47c0 -24 8.33301 -42.5 25 -55.5s37.334 -19.5 62.001 -19.5zM463.998 389.002c-21.333 0 -38.167 -4.83301 -50.5 -14.5s-18.5 -24.5 -18.5 -44.5v-31l124 16v13
c0 19.333 -4.33301 34.333 -13 45s-22.667 16 -42 16z" />
    <glyph glyph-name="Qtounge" horiz-adv-x="660" 
d="M303 202l73.002 50l150 -217c11.333 -16.667 26 -27.334 44 -32.001s37 -7 57 -7v-75c-20.667 0 -39.334 0.166992 -56.001 0.5s-31.834 2.33301 -45.501 6s-26 9.33398 -37 17.001s-21.5 19.167 -31.5 34.5z" />
    </font>
</defs>
</svg>
