<?xml version="1.0" standalone="no"?>
<!DOCTYPE svg PUBLIC "-//W3C//DTD SVG 1.1//EN" "http://www.w3.org/Graphics/SVG/1.1/DTD/svg11.dtd" >
<svg>
<metadata>
Created by FontForge 20090914 at Thu Nov  6 21:29:59 2014
 By www-data
Copyrighted 2008 by Ghettoshark
</metadata>
<defs>
<font id="EASPORTS" horiz-adv-x="1139" >
  <font-face 
    font-family="EA Font v1.5 by Ghettoshark"
    font-weight="400"
    font-stretch="normal"
    units-per-em="2048"
    panose-1="2 0 0 0 0 0 0 0 0 0"
    ascent="1638"
    descent="-410"
    cap-height="1500"
    bbox="40 -1 1745 1500"
    underline-thickness="150"
    underline-position="-142"
    unicode-range="U+0020-U+F005"
  />
<missing-glyph horiz-adv-x="1536" 
d="M256 0v1280h1024v-1280h-1024zM288 32h960v1216h-960v-1216z" />
    <glyph glyph-name=".notdef" horiz-adv-x="1536" 
d="M256 0v1280h1024v-1280h-1024zM288 32h960v1216h-960v-1216z" />
    <glyph glyph-name="space" unicode=" " horiz-adv-x="300" 
 />
    <glyph glyph-name="space" unicode="&#xa0;" horiz-adv-x="300" 
 />
    <glyph glyph-name="exclam" unicode="!" horiz-adv-x="500" 
d="M90 1500h320l15 -15v-1000l-15 -15h-320l-15 15v1000zM90 355h320l15 -15v-325l-15 -15h-320l-15 15v325z" />
    <glyph glyph-name="quotedbl" unicode="&#x22;" horiz-adv-x="727" 
 />
    <glyph glyph-name="numbersign" unicode="#" 
 />
    <glyph glyph-name="dollar" unicode="$" 
 />
    <glyph glyph-name="percent" unicode="%" horiz-adv-x="1821" 
 />
    <glyph glyph-name="ampersand" unicode="&#x26;" horiz-adv-x="1366" 
 />
    <glyph glyph-name="quotesingle" unicode="'" horiz-adv-x="391" 
 />
    <glyph glyph-name="parenleft" unicode="(" horiz-adv-x="682" 
 />
    <glyph glyph-name="parenright" unicode=")" horiz-adv-x="682" 
 />
    <glyph glyph-name="asterisk" unicode="*" horiz-adv-x="797" 
 />
    <glyph glyph-name="plus" unicode="+" horiz-adv-x="1196" 
 />
    <glyph glyph-name="comma" unicode="," horiz-adv-x="569" 
 />
    <glyph glyph-name="hyphen" unicode="-" horiz-adv-x="682" 
 />
    <glyph glyph-name="hyphen" unicode="&#xad;" horiz-adv-x="682" 
 />
    <glyph glyph-name="period" unicode="." horiz-adv-x="430" 
d="M55 355h320l15 -15v-325l-15 -15h-320l-15 15v325z" />
    <glyph glyph-name="slash" unicode="/" horiz-adv-x="569" 
 />
    <glyph glyph-name="zero" unicode="0" horiz-adv-x="1155" 
d="M330 1500l489.998 -0.00195312c98.667 -33.333 175.334 -96.666 230.001 -189.999c16.667 -31.333 26.334 -69.333 29.001 -114l1 -886c-15.333 -89.333 -47 -157.666 -95 -204.999c-80 -66.667 -143.333 -100 -190 -100l-15 -5h-410
c-106.667 29.333 -181.667 76 -225 140c-46.667 57.333 -70 149 -70 275v730c0 170.667 85 289 255 355zM459.998 1155l0.999023 -805c6.66699 -26.667 23.334 -40 50.001 -40h139c26 -6.66699 42.667 10 50 50v790c0 22 -11.667 37 -35 45h-155
c-30 0 -46.667 -13.333 -50 -40z" />
    <glyph glyph-name="one" unicode="1" horiz-adv-x="717" 
d="M288 1500h219h135v-1500l-180 -1h-174v1155c-70.667 0 -141.667 -0.333008 -213 -1v101v174z" />
    <glyph glyph-name="two" unicode="2" horiz-adv-x="1130" 
d="M810 1500c163.333 -54.667 245 -166.334 245 -335.001v-155c-19.333 -113.333 -36 -170 -50 -170c0 -25.333 -125 -148.666 -375 -369.999l-150 -140v-10l10 -10h545v-310h-960v105v270c0 59.333 55 129.333 165 210l215 210c143.333 132 215 210.333 215 235v50
c-12 63.333 -30.333 98.333 -55 105h-70h-411l1 315h675z" />
    <glyph glyph-name="three" unicode="3" horiz-adv-x="1060" 
d="M75 1500l675 -0.000976562c56 -16 114.333 -56 175 -120c40 -65.333 60 -145.333 60 -240c-8 -89.333 -24.667 -162.666 -50 -219.999c-73.333 -100 -128.333 -150 -165 -150v-10c46.667 -30 91.667 -70 135 -120c53.333 -80 80 -170 80 -270
c0 -200.667 -76.667 -324 -230 -370h-680v305l385 5c90 0 135 25 135 75l5 30v95c-16.667 60 -60 90 -130 90l-290 -1v321h280c80 0 120 15 120 45c13.333 14.667 20 29.667 20 45v80c0 60 -33.333 90 -100 90l-70 5h-355v315z" />
    <glyph glyph-name="four" unicode="4" horiz-adv-x="1230" 
d="M480 1500h450.002c35.333 0 58.666 -40 69.999 -120v-665l-5 -100l15 -10h145v-320h-145l-15 -10v-275h-350v275l-10 10h-450c-73.333 0 -110 35 -110 105v150c0 26 48.333 159.333 145 400l25 65c20 46 30 77.667 30 95c51.333 113.333 84.666 198.333 99.999 255
c39.333 96.667 74.333 145 105 145zM630.002 1155c-6 -34 -36 -119 -90 -255l-105 -270v-25h200l10 10v420l5 105l-5 15h-15z" />
    <glyph glyph-name="five" unicode="5" horiz-adv-x="1054" 
d="M75 1500l904 -0.000976562v-315h-486c-20.667 -4.66699 -32 -11.667 -34 -21v-205h226c114.667 0 201.334 -55 260.001 -165c19.333 0 30.666 -84.333 33.999 -253v-151c0 -197.333 -48 -313.666 -144 -348.999c-25.333 -27.333 -91.333 -41 -198 -41h-432
c-86.667 0 -130 38.667 -130 116v103c0 64 43.333 96 130 96h247c95.333 0 143 41 143 123v69c0 86.667 -36.333 130 -109 130h-295c-77.333 12.667 -116 44.667 -116 96v767z" />
    <glyph glyph-name="six" unicode="6" horiz-adv-x="1130" 
d="M319 1500l634.998 -0.000976562v-270h-445c-49.333 0 -77.333 -31.667 -84 -95l-1 -155h335c162 6.66699 260 -65 294 -215l1 -450c0.666992 -208 -82.666 -313 -249.999 -315h-480c-78.667 22.667 -138.667 64.334 -180 125.001
c-43.333 53.333 -64.666 131.333 -63.999 234l-1 806c-2.66699 202 77.333 313.667 240 335zM423.998 684.999l-0.000976562 -350c22.667 -36.667 44.334 -55 65.001 -55h135c43.333 10.667 65 32.334 65 65.001v285c0 35.333 -26.667 58.666 -80 69.999h-170z" />
    <glyph glyph-name="seven" unicode="7" horiz-adv-x="1060" 
d="M75 1500l895 0.000976562l15 -15v-435c-5.33301 -83.333 -87 -231.666 -245 -444.999c-34.667 -60.667 -53 -104 -55 -130v-475h-390v390c0 183.333 66.667 346.666 200 489.999c80 103.333 120 201.666 120 294.999l-15 22h-525v303z" />
    <glyph glyph-name="eight" unicode="8" horiz-adv-x="1175" 
d="M310 1500l555.002 -0.00292969c77.333 -25.333 134 -63.666 170 -114.999c43.333 -47.333 65 -122.333 65 -225v-5c0 -192.667 -70 -322.667 -210 -390c2 -11.333 25.333 -29.666 70 -54.999c93.333 -85.333 140 -192 140 -320v-40
c0 -177.333 -63.333 -287.333 -190 -330l-45 -20h-560c-45.333 10 -95.333 41.667 -150 95c-37.333 34 -64 100.667 -80 200v125c21.333 116.667 39.666 175 54.999 175c0 30.667 51.667 85.667 155 165v10c-31.333 0 -83 46.667 -155 140c-36.667 86.667 -55 150 -55 190
v100c11.333 86.667 34.666 150 69.999 190c54 58.667 109 95.334 165 110.001zM455.002 1050c0 -76 31.667 -119.333 95 -130h50c76.667 0 115 36.667 115 110v40c0 73.333 -28.333 110 -85 110l-30 10c-83.333 -9.33301 -125 -26 -125 -50c-13.333 0 -20 -30 -20 -90z
M455.002 469.997l0.000976562 -35c0 -76.667 28.333 -115 85 -115l65 -15c70 8.66699 105 37 105 85l10 115c-16.667 63.333 -63.334 95 -140.001 95c-83.333 0 -125 -43.333 -125 -130z" />
    <glyph glyph-name="nine" unicode="9" horiz-adv-x="1131" 
d="M805 1495c167.333 -17.333 250.668 -135.667 250.001 -355v-800c-8 -226.667 -94.667 -340 -260 -340h-620v265h445c49.333 0 74.333 21.333 75 64v186h-325c-180 -2 -278.333 69.667 -295 215v450c11.333 193.333 94.666 298.333 249.999 315h480zM440.002 1150
l-0.000976562 -279.999c0 -40 23.333 -65 70 -75h180l15 15v350c0.666992 40 -21 58.333 -65 55h-145c-39.333 -0.666992 -57.666 -22.334 -54.999 -65.001z" />
    <glyph glyph-name="colon" unicode=":" horiz-adv-x="569" 
 />
    <glyph glyph-name="semicolon" unicode=";" horiz-adv-x="569" 
 />
    <glyph glyph-name="semicolon" unicode="&#x37e;" horiz-adv-x="569" 
 />
    <glyph glyph-name="less" unicode="&#x3c;" horiz-adv-x="1196" 
 />
    <glyph glyph-name="equal" unicode="=" horiz-adv-x="1196" 
 />
    <glyph glyph-name="greater" unicode="&#x3e;" horiz-adv-x="1196" 
 />
    <glyph glyph-name="question" unicode="?" 
 />
    <glyph glyph-name="at" unicode="@" horiz-adv-x="2079" 
 />
    <glyph glyph-name="A" unicode="A" horiz-adv-x="1315" 
d="M395 1500l525.001 -0.000976562c31.333 0 51.333 -55 60 -165l260 -1315c-3.33301 -13.333 -13.333 -20 -30 -20h-310c-26.667 0 -43.334 40 -50.001 120c-22 144 -38.667 222.333 -50 235h-155h-130c-12.667 0 -34.334 -111.667 -65.001 -335l-20 -20h-340l-15 15
c96.667 488.667 168.334 875.334 215.001 1160l65 305c14 13.333 27.333 20 40 20zM525.001 634.999l4.99902 -4.99902h190l10 10l-95 530l-5 5h-5c-15.333 0 -30.666 -58.333 -45.999 -175c-36 -200.667 -54 -322.334 -54 -365.001z" />
    <glyph glyph-name="A" unicode="a" horiz-adv-x="1315" 
d="M395 1500l525.001 -0.000976562c31.333 0 51.333 -55 60 -165l260 -1315c-3.33301 -13.333 -13.333 -20 -30 -20h-310c-26.667 0 -43.334 40 -50.001 120c-22 144 -38.667 222.333 -50 235h-155h-130c-12.667 0 -34.334 -111.667 -65.001 -335l-20 -20h-340l-15 15
c96.667 488.667 168.334 875.334 215.001 1160l65 305c14 13.333 27.333 20 40 20zM525.001 634.999l4.99902 -4.99902h190l10 10l-95 530l-5 5h-5c-15.333 0 -30.666 -58.333 -45.999 -175c-36 -200.667 -54 -322.334 -54 -365.001z" />
    <glyph glyph-name="B" unicode="B" horiz-adv-x="1135" 
d="M105 1500l640.001 0.000976562c66 -10.667 131 -45.667 195 -105c49.333 -62 77.666 -133.667 84.999 -215v-155c0 -52.667 -23.333 -111 -70 -175c-33.333 -25.333 -50 -47 -50 -65c96.667 -66.667 145 -133.334 145 -200.001c6.66699 0 10 -16.667 10 -50v-195
c0 -99.333 -46.667 -191 -140 -275c-44 -28 -95.667 -49.667 -155 -65h-670c-13.333 4.66699 -20 19.667 -20 45v1415c0 26.667 10 40 30 40zM425.001 1205l-0.000976562 -305l10 -10h190c24.667 10 43 26.667 55 50v205c-5.33301 46.667 -28.666 70 -69.999 70h-175z
M425 630.001v-340l35 -5h140c63.333 0 95 26.667 95 80v170c0 70 -26.667 105 -80 105h-180z" />
    <glyph glyph-name="B" unicode="b" horiz-adv-x="1135" 
d="M105 1500l640.001 0.000976562c66 -10.667 131 -45.667 195 -105c49.333 -62 77.666 -133.667 84.999 -215v-155c0 -52.667 -23.333 -111 -70 -175c-33.333 -25.333 -50 -47 -50 -65c96.667 -66.667 145 -133.334 145 -200.001c6.66699 0 10 -16.667 10 -50v-195
c0 -99.333 -46.667 -191 -140 -275c-44 -28 -95.667 -49.667 -155 -65h-670c-13.333 4.66699 -20 19.667 -20 45v1415c0 26.667 10 40 30 40zM425.001 1205l-0.000976562 -305l10 -10h190c24.667 10 43 26.667 55 50v205c-5.33301 46.667 -28.666 70 -69.999 70h-175z
M425 630.001v-340l35 -5h140c63.333 0 95 26.667 95 80v170c0 70 -26.667 105 -80 105h-180z" />
    <glyph glyph-name="C" unicode="C" horiz-adv-x="1101" 
d="M416 1500h565.001c30 0 45 -18.333 45 -55v-210c0 -36.667 -18.333 -55 -55 -55h-470c-26 1.33301 -39.333 -12 -40 -40l-1 -776c4 -32 20.667 -50 50 -54h471c30 0 45 -11.667 45 -35v-235c0 -26.667 -10 -40 -30 -40h-640c-66.667 14.667 -128.334 49.667 -185.001 105
c-63.333 69.333 -95 154.333 -95 255l-1 790l1 25c0 68.667 31.667 142 95 220c75.333 66.667 152 100 230 100z" />
    <glyph glyph-name="C" unicode="c" horiz-adv-x="1101" 
d="M416 1500h565.001c30 0 45 -18.333 45 -55v-210c0 -36.667 -18.333 -55 -55 -55h-470c-26 1.33301 -39.333 -12 -40 -40l-1 -776c4 -32 20.667 -50 50 -54h471c30 0 45 -11.667 45 -35v-235c0 -26.667 -10 -40 -30 -40h-640c-66.667 14.667 -128.334 49.667 -185.001 105
c-63.333 69.333 -95 154.333 -95 255l-1 790l1 25c0 68.667 31.667 142 95 220c75.333 66.667 152 100 230 100z" />
    <glyph glyph-name="D" unicode="D" horiz-adv-x="1135" 
d="M785 1500c103.333 -16.667 177.669 -49.332 223.002 -97.999c32 -50 47.667 -110.667 47 -182l5 -895c-4.66699 -72.667 -36.334 -144.334 -95.001 -215.001c-72.667 -70 -149.334 -106.667 -230.001 -110h-630c-10 -0 -20 13.333 -30 40v1405c0 36.667 11.667 55 35 55
h675zM430.003 1225l0.000976562 -930c0 -10 6.66699 -15 20 -15h155c64 0 97.333 23.333 100 70v805c-0.666992 50.667 -42.334 74 -125.001 70h-150z" />
    <glyph glyph-name="D" unicode="d" horiz-adv-x="1135" 
d="M785 1500c103.333 -16.667 177.669 -49.332 223.002 -97.999c32 -50 47.667 -110.667 47 -182l5 -895c-4.66699 -72.667 -36.334 -144.334 -95.001 -215.001c-72.667 -70 -149.334 -106.667 -230.001 -110h-630c-10 -0 -20 13.333 -30 40v1405c0 36.667 11.667 55 35 55
h675zM430.003 1225l0.000976562 -930c0 -10 6.66699 -15 20 -15h155c64 0 97.333 23.333 100 70v805c-0.666992 50.667 -42.334 74 -125.001 70h-150z" />
    <glyph glyph-name="E" unicode="E" horiz-adv-x="1075" 
d="M95 1500h865l15 -15v-225c0 -23.333 -11.667 -35 -35 -35h-495c-20 0 -30 -10 -30 -30v-260l15 -15h420c30 0 45 -11.667 45 -35v-215c0 -20 -10 -30 -30 -30h-420c-20 0 -30 -10 -30 -30v-250c0 -56.667 43.333 -85 130 -85h420c23.333 0 35 -11.667 35 -35v-225
l-15 -15h-645c-95.333 25.333 -167 75.333 -215 150c-33.333 67.333 -50 132.333 -50 195v1095c0 40 6.66699 60 20 60z" />
    <glyph glyph-name="E" unicode="e" horiz-adv-x="1075" 
d="M95 1500h865l15 -15v-225c0 -23.333 -11.667 -35 -35 -35h-495c-20 0 -30 -10 -30 -30v-260l15 -15h420c30 0 45 -11.667 45 -35v-215c0 -20 -10 -30 -30 -30h-420c-20 0 -30 -10 -30 -30v-250c0 -56.667 43.333 -85 130 -85h420c23.333 0 35 -11.667 35 -35v-225
l-15 -15h-645c-95.333 25.333 -167 75.333 -215 150c-33.333 67.333 -50 132.333 -50 195v1095c0 40 6.66699 60 20 60z" />
    <glyph glyph-name="F" unicode="F" horiz-adv-x="1185" 
d="M95 1500h985.001c20 0 30 -13.333 30 -40v-235c0 -30 -15 -45 -45 -45h-555l-15 -15v-270c0 -12 5 -22 15 -30h60h370c13.333 -5.33301 20 -17 20 -35v-260c0 -23.333 -11.667 -35 -35 -35h-420l-10 -10v-510l-15 -15h-385c-10.667 -0 -17.334 23.333 -20.001 70l5 1385
l-5 5v5c6 23.333 12.667 35 20 35z" />
    <glyph glyph-name="F" unicode="f" horiz-adv-x="1185" 
d="M95 1500h985.001c20 0 30 -13.333 30 -40v-235c0 -30 -15 -45 -45 -45h-555l-15 -15v-270c0 -12 5 -22 15 -30h60h370c13.333 -5.33301 20 -17 20 -35v-260c0 -23.333 -11.667 -35 -35 -35h-420l-10 -10v-510l-15 -15h-385c-10.667 -0 -17.334 23.333 -20.001 70l5 1385
l-5 5v5c6 23.333 12.667 35 20 35z" />
    <glyph glyph-name="G" unicode="G" horiz-adv-x="1135" 
d="M320 1500h674.998l15 -15v-235c0 -26.667 -16.667 -40 -50 -40h-440c-43.333 0 -70 -21.667 -80 -65v-790c16.667 -28 33.334 -46.333 50.001 -55h175c20 0 30 10 30 30v490c0 6 10 14.333 30 25l5 -5h290c26.667 0 40 -13.333 40 -40v-755
c0 -25.333 -6.66699 -40.333 -20 -45h-660c-121.333 29.333 -204.666 81 -249.999 155c-36.667 66.667 -55 120 -55 160v885c0 65.333 36.667 140.333 110 225c63.333 44.667 108.333 69.667 135 75z" />
    <glyph glyph-name="G" unicode="g" horiz-adv-x="1135" 
d="M320 1500h674.998l15 -15v-235c0 -26.667 -16.667 -40 -50 -40h-440c-43.333 0 -70 -21.667 -80 -65v-790c16.667 -28 33.334 -46.333 50.001 -55h175c20 0 30 10 30 30v490c0 6 10 14.333 30 25l5 -5h290c26.667 0 40 -13.333 40 -40v-755
c0 -25.333 -6.66699 -40.333 -20 -45h-660c-121.333 29.333 -204.666 81 -249.999 155c-36.667 66.667 -55 120 -55 160v885c0 65.333 36.667 140.333 110 225c63.333 44.667 108.333 69.667 135 75z" />
    <glyph glyph-name="H" unicode="H" horiz-adv-x="1357" 
d="M95 1500h385l15 -15v-545l15 -20h340l15 15v550l15 15h385l15 -15l2 -1440c0 -30 -13.333 -45 -40 -45h-332c-26.667 0 -40 15 -40 45v555c-3.33301 13.333 -13.333 20 -30 20h-330l-15 -15l-1 -555c0 -33.333 -11.667 -50 -35 -50h-344c-26.667 0 -40 15 -40 45v1410
c0 25.333 6.66699 40.333 20 45z" />
    <glyph glyph-name="H" unicode="h" horiz-adv-x="1357" 
d="M95 1500h385l15 -15v-545l15 -20h340l15 15v550l15 15h385l15 -15l2 -1440c0 -30 -13.333 -45 -40 -45h-332c-26.667 0 -40 15 -40 45v555c-3.33301 13.333 -13.333 20 -30 20h-330l-15 -15l-1 -555c0 -33.333 -11.667 -50 -35 -50h-344c-26.667 0 -40 15 -40 45v1410
c0 25.333 6.66699 40.333 20 45z" />
    <glyph glyph-name="I" unicode="I" horiz-adv-x="510" 
d="M95 1500h320c13.333 -4.66699 20 -19.667 20 -45v-1440l-15 -15h-325c-13.333 4.66699 -20 19.667 -20 45v1410c0 25.333 6.66699 40.333 20 45z" />
    <glyph glyph-name="I" unicode="i" horiz-adv-x="510" 
d="M95 1500h320c13.333 -4.66699 20 -19.667 20 -45v-1440l-15 -15h-325c-13.333 4.66699 -20 19.667 -20 45v1410c0 25.333 6.66699 40.333 20 45z" />
    <glyph glyph-name="J" unicode="J" horiz-adv-x="875" 
d="M455 1500h330l15 -15v-1120c0 -188 -36.667 -301.333 -110 -340l-65 -25h-535l-15 15v270l15 15h315c23.333 11.333 35 31.333 35 60v1125z" />
    <glyph glyph-name="J" unicode="j" horiz-adv-x="875" 
d="M455 1500h330l15 -15v-1120c0 -188 -36.667 -301.333 -110 -340l-65 -25h-535l-15 15v270l15 15h315c23.333 11.333 35 31.333 35 60v1125z" />
    <glyph glyph-name="K" unicode="K" horiz-adv-x="1210" 
d="M90 1500h304.998l15 -15v-550c0 -36.667 31.667 -55 95 -55c46.667 0 75 16.667 85 50l65 180l70 200c42.667 118.667 69.334 182 80.001 190h315l15 -15l-110 -285l-90 -220l-25 -70v-30c0 -16.667 35 -55 105 -115c20 -27.333 35 -87.333 45 -180v-530
c-5.33301 -36.667 -13.666 -55 -24.999 -55h-300l-15 15v485c-12 90 -42 135 -90 135h-120c-66.667 0 -100 -16.667 -100 -50v-570l-15 -15h-300c-13.333 4.66699 -20 19.667 -20 45v1440z" />
    <glyph glyph-name="K" unicode="k" horiz-adv-x="1210" 
d="M90 1500h304.998l15 -15v-550c0 -36.667 31.667 -55 95 -55c46.667 0 75 16.667 85 50l65 180l70 200c42.667 118.667 69.334 182 80.001 190h315l15 -15l-110 -285l-90 -220l-25 -70v-30c0 -16.667 35 -55 105 -115c20 -27.333 35 -87.333 45 -180v-530
c-5.33301 -36.667 -13.666 -55 -24.999 -55h-300l-15 15v485c-12 90 -42 135 -90 135h-120c-66.667 0 -100 -16.667 -100 -50v-570l-15 -15h-300c-13.333 4.66699 -20 19.667 -20 45v1440z" />
    <glyph glyph-name="L" unicode="L" horiz-adv-x="1220" 
d="M95 1500h370.001c23.333 0 35 -21.667 35 -65v-700v-365c3.33301 -46.667 26.666 -70 69.999 -70h520c36.667 0 55 -15 55 -45v-240l-15 -15h-740c-73.333 8.66699 -153.333 52 -240 130c-50 74 -75 142.333 -75 205v1120c0 25.333 6.66699 40.333 20 45z" />
    <glyph glyph-name="L" unicode="l" horiz-adv-x="1220" 
d="M95 1500h370.001c23.333 0 35 -21.667 35 -65v-700v-365c3.33301 -46.667 26.666 -70 69.999 -70h520c36.667 0 55 -15 55 -45v-240l-15 -15h-740c-73.333 8.66699 -153.333 52 -240 130c-50 74 -75 142.333 -75 205v1120c0 25.333 6.66699 40.333 20 45z" />
    <glyph glyph-name="M" unicode="M" horiz-adv-x="1689" 
d="M120 1500l485.001 -0.000976562c16 -11.333 39.333 -104.666 70 -279.999l145 -765h25c6.66699 0 60 273.333 160 820c24 150 42.333 225 55 225h535l15 -15v-1385c2.66699 -73.333 -7.33301 -106.666 -30 -99.999h-280c-23.333 0 -35 26.667 -35 80v940l-14 20h-21
c-16 0 -89.333 -343.333 -220 -1030l-15 -10h-315c-16 0 -89.333 341.667 -220 1025l-20 18c-22.667 -0.666992 -34.334 -8.33398 -35.001 -23.001v-965c1.33301 -38 -7 -56.333 -25 -55h-285c-13.333 4.66699 -20 19.667 -20 45v1410c4 30 19 45 45 45z" />
    <glyph glyph-name="M" unicode="m" horiz-adv-x="1689" 
d="M120 1500l485.001 -0.000976562c16 -11.333 39.333 -104.666 70 -279.999l145 -765h25c6.66699 0 60 273.333 160 820c24 150 42.333 225 55 225h535l15 -15v-1385c2.66699 -73.333 -7.33301 -106.666 -30 -99.999h-280c-23.333 0 -35 26.667 -35 80v940l-14 20h-21
c-16 0 -89.333 -343.333 -220 -1030l-15 -10h-315c-16 0 -89.333 341.667 -220 1025l-20 18c-22.667 -0.666992 -34.334 -8.33398 -35.001 -23.001v-965c1.33301 -38 -7 -56.333 -25 -55h-285c-13.333 4.66699 -20 19.667 -20 45v1410c4 30 19 45 45 45z" />
    <glyph glyph-name="N" unicode="N" horiz-adv-x="1335" 
d="M90 1500h480c18.667 -14.667 63.667 -134.667 135 -360l165 -490h15l-1 811c6 26 13 39 21 39h340l15 -15v-1470l-15 -15h-465c-21.333 -0 -36.333 23.333 -45 70l-265 785h-15v-45v-770c0 -26.667 -10 -40 -30 -40h-335l-15 15v1470z" />
    <glyph glyph-name="N" unicode="n" horiz-adv-x="1335" 
d="M90 1500h480c18.667 -14.667 63.667 -134.667 135 -360l165 -490h15l-1 811c6 26 13 39 21 39h340l15 -15v-1470l-15 -15h-465c-21.333 -0 -36.333 23.333 -45 70l-265 785h-15v-45v-770c0 -26.667 -10 -40 -30 -40h-335l-15 15v1470z" />
    <glyph glyph-name="O" unicode="O" horiz-adv-x="1145" 
d="M320 1500l495.001 0.000976562c59.333 -12 117.666 -47 174.999 -105c50 -70.667 75 -127.334 75 -170.001l5 -135v-640c0 -176.667 -13.333 -265 -40 -265c-24.667 -59.333 -78 -114.333 -160 -165l-55 -20h-495c-94 31.333 -167.333 93 -220 185
c-16.667 32.667 -25 82.667 -25 150v835c0 166.667 81.667 276.667 245 330zM440.001 1145v-750.001c0 -63.333 20 -95 60 -95c126.667 -6.66699 190 10 190 50l5 45v735c3.33301 50 -16.667 78.333 -60 85h-150c-36.667 -13.333 -51.667 -36.666 -45 -69.999z" />
    <glyph glyph-name="O" unicode="o" horiz-adv-x="1145" 
d="M320 1500l495.001 0.000976562c59.333 -12 117.666 -47 174.999 -105c50 -70.667 75 -127.334 75 -170.001l5 -135v-640c0 -176.667 -13.333 -265 -40 -265c-24.667 -59.333 -78 -114.333 -160 -165l-55 -20h-495c-94 31.333 -167.333 93 -220 185
c-16.667 32.667 -25 82.667 -25 150v835c0 166.667 81.667 276.667 245 330zM440.001 1145v-750.001c0 -63.333 20 -95 60 -95c126.667 -6.66699 190 10 190 50l5 45v735c3.33301 50 -16.667 78.333 -60 85h-150c-36.667 -13.333 -51.667 -36.666 -45 -69.999z" />
    <glyph glyph-name="P" unicode="P" horiz-adv-x="1125" 
d="M90 1500h720.001c160 -58.667 240 -170.334 240 -335.001v-315c0 -107.333 -26.667 -185.666 -80 -234.999c-55.333 -76.667 -152 -115 -290 -115h-205c-20 0 -30 -10 -30 -30v-445c-6.66699 -16.667 -18.334 -25 -35.001 -25h-300c-23.333 -0 -35 13.333 -35 40v1445z
M445.001 1180v-370l20 -20h145c38 -5.33301 64.667 13 80 55v200l5 95c-5.33301 46 -32 69.333 -80 70h-140c-20 0 -30 -10 -30 -30z" />
    <glyph glyph-name="P" unicode="p" horiz-adv-x="1125" 
d="M90 1500h720.001c160 -58.667 240 -170.334 240 -335.001v-315c0 -107.333 -26.667 -185.666 -80 -234.999c-55.333 -76.667 -152 -115 -290 -115h-205c-20 0 -30 -10 -30 -30v-445c-6.66699 -16.667 -18.334 -25 -35.001 -25h-300c-23.333 -0 -35 13.333 -35 40v1445z
M445.001 1180v-370l20 -20h145c38 -5.33301 64.667 13 80 55v200l5 95c-5.33301 46 -32 69.333 -80 70h-140c-20 0 -30 -10 -30 -30z" />
    <glyph glyph-name="Q" unicode="Q" horiz-adv-x="1310" 
d="M355 1500l514.999 0.000976562l100 -35c120 -80 180 -195 180 -345v-700l-5 -100c60 -58 90 -94.667 90 -110v-50c0 -28 -20 -61.667 -60 -101s-68.333 -59 -85 -59h-70c-10 0 -31.667 13.333 -65 40l-75 -40h-65h-455c-90.667 26 -160.667 71 -210 135
c-50 58.667 -75 152 -75 280v690c0 165.333 53.333 278.666 160 339.999c14.667 13.333 46.334 28.333 95.001 45c0 6 8.33301 9.33301 25 10zM454.999 430.001c3.33301 -73.333 36.667 -111.667 100 -115h90c80 0 120 46.667 120 140v625c0 73.333 -53.333 110 -160 110
c-86.667 -5.33301 -131.667 -23.333 -135 -54c-5.33301 0 -10.333 -15 -15 -45v-661z" />
    <glyph glyph-name="Q" unicode="q" horiz-adv-x="1310" 
d="M355 1500l514.999 0.000976562l100 -35c120 -80 180 -195 180 -345v-700l-5 -100c60 -58 90 -94.667 90 -110v-50c0 -28 -20 -61.667 -60 -101s-68.333 -59 -85 -59h-70c-10 0 -31.667 13.333 -65 40l-75 -40h-65h-455c-90.667 26 -160.667 71 -210 135
c-50 58.667 -75 152 -75 280v690c0 165.333 53.333 278.666 160 339.999c14.667 13.333 46.334 28.333 95.001 45c0 6 8.33301 9.33301 25 10zM454.999 430.001c3.33301 -73.333 36.667 -111.667 100 -115h90c80 0 120 46.667 120 140v625c0 73.333 -53.333 110 -160 110
c-86.667 -5.33301 -131.667 -23.333 -135 -54c-5.33301 0 -10.333 -15 -15 -45v-661z" />
    <glyph glyph-name="R" unicode="R" horiz-adv-x="1120" 
d="M90 1500l679.999 -0.000976562c86.667 -20.667 156.667 -64 210 -130c40 -44.667 60 -128 60 -250v-115c0 -114 -20 -189 -60 -225l-20 -25v-10c56.667 -53.333 85 -126.666 85 -219.999v-495c-8.66699 -20 -22 -30 -40 -30h-280c-26.667 0 -40 15 -40 45v485
c-10 56.667 -38.333 85 -85 85h-140l-20 -20v-540c0 -36.667 -13.333 -55 -40 -55h-282c-19.333 0 -32.666 15 -39.999 45l-3 1440zM439.999 1195v-295l15 -15h155c39.333 0 64.333 30 75 90v160c-12 53.333 -45.333 80 -100 80h-125z" />
    <glyph glyph-name="R" unicode="r" horiz-adv-x="1120" 
d="M90 1500l679.999 -0.000976562c86.667 -20.667 156.667 -64 210 -130c40 -44.667 60 -128 60 -250v-115c0 -114 -20 -189 -60 -225l-20 -25v-10c56.667 -53.333 85 -126.666 85 -219.999v-495c-8.66699 -20 -22 -30 -40 -30h-280c-26.667 0 -40 15 -40 45v485
c-10 56.667 -38.333 85 -85 85h-140l-20 -20v-540c0 -36.667 -13.333 -55 -40 -55h-282c-19.333 0 -32.666 15 -39.999 45l-3 1440zM439.999 1195v-295l15 -15h155c39.333 0 64.333 30 75 90v160c-12 53.333 -45.333 80 -100 80h-125z" />
    <glyph glyph-name="S" unicode="S" horiz-adv-x="1115" 
d="M340 1500l640 -0.00292969l15 -15v-235c0 -18 -6.66699 -29.667 -20 -35h-455c-53.333 -15.333 -80 -43.666 -80 -84.999v-105c0 -55.333 50 -90.333 150 -105c25.333 0 130.333 -25 315 -75c90 -54 135 -144 135 -270v-210c0 -164.667 -71.667 -278 -215 -340l-125 -25
h-565c-18 0 -33 10 -45 30v250l30 25l35 -5h440c53.333 10.667 80 37.334 80 80.001v125c0 45.333 -21.667 75.333 -65 90c-300 63.333 -450 108.333 -450 135c-56.667 48.667 -85 125.334 -85 230.001v215c0 137.333 68.333 239 205 305z" />
    <glyph glyph-name="S" unicode="s" horiz-adv-x="1115" 
d="M340 1500l640 -0.00292969l15 -15v-235c0 -18 -6.66699 -29.667 -20 -35h-455c-53.333 -15.333 -80 -43.666 -80 -84.999v-105c0 -55.333 50 -90.333 150 -105c25.333 0 130.333 -25 315 -75c90 -54 135 -144 135 -270v-210c0 -164.667 -71.667 -278 -215 -340l-125 -25
h-565c-18 0 -33 10 -45 30v250l30 25l35 -5h440c53.333 10.667 80 37.334 80 80.001v125c0 45.333 -21.667 75.333 -65 90c-300 63.333 -450 108.333 -450 135c-56.667 48.667 -85 125.334 -85 230.001v215c0 137.333 68.333 239 205 305z" />
    <glyph glyph-name="T" unicode="T" horiz-adv-x="1145" 
d="M110 1500h945l15 -15l-1 -235c-3.33301 -26.667 -15 -40 -35 -40h-244c-23.333 0 -35 -11.667 -35 -35v-1135c0 -26.667 -10 -40 -30 -40h-300c-23.333 0 -35 16.667 -35 50v905v235l-28 20h-237c-33.333 2 -50 9.66699 -50 23v215v17c4 23.333 15.667 35 35 35z" />
    <glyph glyph-name="T" unicode="t" horiz-adv-x="1145" 
d="M110 1500h945l15 -15l-1 -235c-3.33301 -26.667 -15 -40 -35 -40h-244c-23.333 0 -35 -11.667 -35 -35v-1135c0 -26.667 -10 -40 -30 -40h-300c-23.333 0 -35 16.667 -35 50v905v235l-28 20h-237c-33.333 2 -50 9.66699 -50 23v215v17c4 23.333 15.667 35 35 35z" />
    <glyph glyph-name="U" unicode="U" horiz-adv-x="1135" 
d="M110 1500h310.002c13.333 -4.66699 20 -19.667 20 -45l-5 -1085c17.333 -53.333 45.666 -80 84.999 -80h100c24.667 0 49.667 20 75 60v1105c0 25.333 6.66699 40.333 20 45h310c23.333 0 35 -13.333 35 -40v-1120c0 -124 -58.333 -224 -175 -300l-115 -40h-410
c-110.667 31.333 -187.334 81.333 -230.001 150c-16 0 -32.667 60 -50 180l-5 1135c4 23.333 15.667 35 35 35z" />
    <glyph glyph-name="U" unicode="u" horiz-adv-x="1135" 
d="M110 1500h310.002c13.333 -4.66699 20 -19.667 20 -45l-5 -1085c17.333 -53.333 45.666 -80 84.999 -80h100c24.667 0 49.667 20 75 60v1105c0 25.333 6.66699 40.333 20 45h310c23.333 0 35 -13.333 35 -40v-1120c0 -124 -58.333 -224 -175 -300l-115 -40h-410
c-110.667 31.333 -187.334 81.333 -230.001 150c-16 0 -32.667 60 -50 180l-5 1135c4 23.333 15.667 35 35 35z" />
    <glyph glyph-name="V" unicode="V" horiz-adv-x="1265" 
d="M90 1500h309.997c14.667 0 46.334 -143.333 95.001 -430l130 -645l5 -5h10c13.333 0 33.333 80 60 240c83.333 450 138.333 728.333 165 835l20 5h295l10 -10v-5l-265 -1285c-27.333 -133.333 -47.333 -200 -60 -200h-455c-15.333 0 -43.666 111.667 -84.999 335
c-113.333 499.333 -196.666 881 -249.999 1145v5z" />
    <glyph glyph-name="V" unicode="v" horiz-adv-x="1265" 
d="M90 1500h309.997c14.667 0 46.334 -143.333 95.001 -430l130 -645l5 -5h10c13.333 0 33.333 80 60 240c83.333 450 138.333 728.333 165 835l20 5h295l10 -10v-5l-265 -1285c-27.333 -133.333 -47.333 -200 -60 -200h-455c-15.333 0 -43.666 111.667 -84.999 335
c-113.333 499.333 -196.666 881 -249.999 1145v5z" />
    <glyph glyph-name="W" unicode="W" horiz-adv-x="1820" 
d="M90 1500h319.999c17.333 0 37.5 -98.833 60.5 -296.5s44.5 -422.167 64.5 -673.5c0 -30 5 -45 15 -45h15l15 15v55l60 430l80 510l5 5h380c13.333 0 28.333 -86.667 45 -260c6.66699 -10.667 26.667 -155.667 60 -435c16 -79.333 29.333 -182.666 40 -309.999l15 -10h5
c16.667 0 40.834 147.167 72.501 441.5s47.5 472.166 47.5 533.499c9.33301 26.667 17.666 40 24.999 40h315l15 -10c-120 -801.333 -188.333 -1286.33 -205 -1455c-10.667 -23.333 -25.667 -35 -45 -35h-410c-33.333 0 -77.666 289 -132.999 867
c-8 118.667 -22 178 -42 178c-13.333 -4.66699 -20 -24.667 -20 -60c-80.667 -653.333 -129 -980 -145 -980l-25 -5h-395c-33.333 -0 -57.5 62.833 -72.5 188.5s-74.167 559.5 -177.5 1301.5z" />
    <glyph glyph-name="W" unicode="w" horiz-adv-x="1820" 
d="M90 1500h319.999c17.333 0 37.5 -98.833 60.5 -296.5s44.5 -422.167 64.5 -673.5c0 -30 5 -45 15 -45h15l15 15v55l60 430l80 510l5 5h380c13.333 0 28.333 -86.667 45 -260c6.66699 -10.667 26.667 -155.667 60 -435c16 -79.333 29.333 -182.666 40 -309.999l15 -10h5
c16.667 0 40.834 147.167 72.501 441.5s47.5 472.166 47.5 533.499c9.33301 26.667 17.666 40 24.999 40h315l15 -10c-120 -801.333 -188.333 -1286.33 -205 -1455c-10.667 -23.333 -25.667 -35 -45 -35h-410c-33.333 0 -77.666 289 -132.999 867
c-8 118.667 -22 178 -42 178c-13.333 -4.66699 -20 -24.667 -20 -60c-80.667 -653.333 -129 -980 -145 -980l-25 -5h-395c-33.333 -0 -57.5 62.833 -72.5 188.5s-74.167 559.5 -177.5 1301.5z" />
    <glyph glyph-name="X" unicode="X" horiz-adv-x="1400" 
d="M85 1500l365 -0.000976562c21.333 0 49.666 -38.333 84.999 -115l165 -275c26 34.667 102.667 163 230 385l20 5h365l10 -10c-280 -485.333 -420 -732 -420 -740c280 -485.333 420 -732 420 -740l-10 -10h-360c-21.333 0 -44.666 31.667 -69.999 95
c-16.667 20 -75 120 -175 300h-10c-10 -6 -86.667 -136 -230 -390l-25 -5h-360c-6.66699 0 -10 5 -10 15c280 482.667 420 729.334 420 740.001c-18 41.333 -158 286.333 -420 735z" />
    <glyph glyph-name="X" unicode="x" horiz-adv-x="1400" 
d="M85 1500l365 -0.000976562c21.333 0 49.666 -38.333 84.999 -115l165 -275c26 34.667 102.667 163 230 385l20 5h365l10 -10c-280 -485.333 -420 -732 -420 -740c280 -485.333 420 -732 420 -740l-10 -10h-360c-21.333 0 -44.666 31.667 -69.999 95
c-16.667 20 -75 120 -175 300h-10c-10 -6 -86.667 -136 -230 -390l-25 -5h-360c-6.66699 0 -10 5 -10 15c280 482.667 420 729.334 420 740.001c-18 41.333 -158 286.333 -420 735z" />
    <glyph glyph-name="Y" unicode="Y" horiz-adv-x="1440" 
d="M75 1500h370.001c24.667 0 63 -55 115 -165l160 -260h10c155.333 278.667 237 418.667 245 420l20 5h370v-15c-310.667 -532.667 -467.334 -807.667 -470.001 -825v-645l-15 -15h-320l-15 15v645c-6 24 -162.667 299 -470 825v15z" />
    <glyph glyph-name="Y" unicode="y" horiz-adv-x="1440" 
d="M75 1500h370.001c24.667 0 63 -55 115 -165l160 -260h10c155.333 278.667 237 418.667 245 420l20 5h370v-15c-310.667 -532.667 -467.334 -807.667 -470.001 -825v-645l-15 -15h-320l-15 15v645c-6 24 -162.667 299 -470 825v15z" />
    <glyph glyph-name="Z" unicode="Z" horiz-adv-x="1130" 
d="M90 1500l950 0.000976562l15 -15v-440c0 -18.667 -55 -78.667 -165 -180l-500 -505v-10h650l15 -15v-320l-15 -15h-950l-15 15v505c0 19.333 73.333 97.666 220 234.999l380 385v10h-585l-15 15v320z" />
    <glyph glyph-name="Z" unicode="z" horiz-adv-x="1130" 
d="M90 1500l950 0.000976562l15 -15v-440c0 -18.667 -55 -78.667 -165 -180l-500 -505v-10h650l15 -15v-320l-15 -15h-950l-15 15v505c0 19.333 73.333 97.666 220 234.999l380 385v10h-585l-15 15v320z" />
    <glyph glyph-name="bracketleft" unicode="[" horiz-adv-x="569" 
 />
    <glyph glyph-name="backslash" unicode="\" horiz-adv-x="569" 
 />
    <glyph glyph-name="bracketright" unicode="]" horiz-adv-x="569" 
 />
    <glyph glyph-name="asciicircum" unicode="^" horiz-adv-x="961" 
 />
    <glyph glyph-name="underscore" unicode="_" 
 />
    <glyph glyph-name="braceleft" unicode="{" horiz-adv-x="684" 
 />
    <glyph glyph-name="bar" unicode="|" horiz-adv-x="532" 
 />
    <glyph glyph-name="braceright" unicode="}" horiz-adv-x="684" 
 />
    <glyph glyph-name="asciitilde" unicode="~" horiz-adv-x="1196" 
 />
    <glyph glyph-name="exclamdown" unicode="&#xa1;" horiz-adv-x="682" 
 />
    <glyph glyph-name="cent" unicode="&#xa2;" 
 />
    <glyph glyph-name="sterling" unicode="&#xa3;" 
 />
    <glyph glyph-name="currency" unicode="&#xa4;" 
 />
    <glyph glyph-name="yen" unicode="&#xa5;" 
 />
    <glyph glyph-name="brokenbar" unicode="&#xa6;" horiz-adv-x="532" 
 />
    <glyph glyph-name="section" unicode="&#xa7;" 
 />
    <glyph glyph-name="dieresis" unicode="&#xa8;" horiz-adv-x="682" 
 />
    <glyph glyph-name="copyright" unicode="&#xa9;" horiz-adv-x="1509" 
 />
    <glyph glyph-name="ordfeminine" unicode="&#xaa;" horiz-adv-x="758" 
 />
    <glyph glyph-name="guillemotleft" unicode="&#xab;" 
 />
    <glyph glyph-name="logicalnot" unicode="&#xac;" horiz-adv-x="1196" 
 />
    <glyph glyph-name="registered" unicode="&#xae;" horiz-adv-x="1509" 
 />
    <glyph glyph-name="macron" unicode="&#xaf;" horiz-adv-x="1131" 
 />
    <glyph glyph-name="degree" unicode="&#xb0;" horiz-adv-x="819" 
 />
    <glyph glyph-name="plusminus" unicode="&#xb1;" horiz-adv-x="1124" 
 />
    <glyph glyph-name="uni00B2" unicode="&#xb2;" horiz-adv-x="682" 
 />
    <glyph glyph-name="uni00B3" unicode="&#xb3;" horiz-adv-x="682" 
 />
    <glyph glyph-name="acute" unicode="&#xb4;" horiz-adv-x="682" 
 />
    <glyph glyph-name="mu" unicode="&#xb5;" horiz-adv-x="1180" 
 />
    <glyph glyph-name="paragraph" unicode="&#xb6;" horiz-adv-x="1100" 
 />
    <glyph glyph-name="periodcentered" unicode="&#xb7;" horiz-adv-x="569" 
 />
    <glyph glyph-name="periodcentered" unicode="&#x2219;" horiz-adv-x="569" 
 />
    <glyph glyph-name="cedilla" unicode="&#xb8;" horiz-adv-x="682" 
 />
    <glyph glyph-name="uni00B9" unicode="&#xb9;" horiz-adv-x="682" 
 />
    <glyph glyph-name="ordmasculine" unicode="&#xba;" horiz-adv-x="748" 
 />
    <glyph glyph-name="guillemotright" unicode="&#xbb;" 
 />
    <glyph glyph-name="onequarter" unicode="&#xbc;" horiz-adv-x="1708" 
 />
    <glyph glyph-name="onehalf" unicode="&#xbd;" horiz-adv-x="1708" 
 />
    <glyph glyph-name="threequarters" unicode="&#xbe;" horiz-adv-x="1708" 
 />
    <glyph glyph-name="questiondown" unicode="&#xbf;" horiz-adv-x="1251" 
 />
    <glyph glyph-name="Agrave" unicode="&#xc0;" horiz-adv-x="1366" 
 />
    <glyph glyph-name="Aacute" unicode="&#xc1;" horiz-adv-x="1366" 
 />
    <glyph glyph-name="Acircumflex" unicode="&#xc2;" horiz-adv-x="1366" 
 />
    <glyph glyph-name="Atilde" unicode="&#xc3;" horiz-adv-x="1366" 
 />
    <glyph glyph-name="Adieresis" unicode="&#xc4;" horiz-adv-x="1366" 
 />
    <glyph glyph-name="Aring" unicode="&#xc5;" horiz-adv-x="1366" 
 />
    <glyph glyph-name="AE" unicode="&#xc6;" horiz-adv-x="2048" 
 />
    <glyph glyph-name="Ccedilla" unicode="&#xc7;" horiz-adv-x="1479" 
 />
    <glyph glyph-name="Egrave" unicode="&#xc8;" horiz-adv-x="1366" 
 />
    <glyph glyph-name="Eacute" unicode="&#xc9;" horiz-adv-x="1366" 
 />
    <glyph glyph-name="Ecircumflex" unicode="&#xca;" horiz-adv-x="1366" 
 />
    <glyph glyph-name="Edieresis" unicode="&#xcb;" horiz-adv-x="1366" 
 />
    <glyph glyph-name="Igrave" unicode="&#xcc;" horiz-adv-x="569" 
 />
    <glyph glyph-name="Iacute" unicode="&#xcd;" horiz-adv-x="569" 
 />
    <glyph glyph-name="Icircumflex" unicode="&#xce;" horiz-adv-x="569" 
 />
    <glyph glyph-name="Idieresis" unicode="&#xcf;" horiz-adv-x="569" 
 />
    <glyph glyph-name="Eth" unicode="&#xd0;" horiz-adv-x="1479" 
 />
    <glyph glyph-name="Ntilde" unicode="&#xd1;" horiz-adv-x="1479" 
 />
    <glyph glyph-name="Ograve" unicode="&#xd2;" horiz-adv-x="1593" 
 />
    <glyph glyph-name="Oacute" unicode="&#xd3;" horiz-adv-x="1593" 
 />
    <glyph glyph-name="Ocircumflex" unicode="&#xd4;" horiz-adv-x="1593" 
 />
    <glyph glyph-name="Otilde" unicode="&#xd5;" horiz-adv-x="1593" 
 />
    <glyph glyph-name="Odieresis" unicode="&#xd6;" horiz-adv-x="1593" 
 />
    <glyph glyph-name="multiply" unicode="&#xd7;" horiz-adv-x="1196" 
 />
    <glyph glyph-name="Oslash" unicode="&#xd8;" horiz-adv-x="1593" 
 />
    <glyph glyph-name="Ugrave" unicode="&#xd9;" horiz-adv-x="1479" 
 />
    <glyph glyph-name="Uacute" unicode="&#xda;" horiz-adv-x="1479" 
 />
    <glyph glyph-name="Ucircumflex" unicode="&#xdb;" horiz-adv-x="1479" 
 />
    <glyph glyph-name="Udieresis" unicode="&#xdc;" horiz-adv-x="1479" 
 />
    <glyph glyph-name="Yacute" unicode="&#xdd;" horiz-adv-x="1366" 
 />
    <glyph glyph-name="Thorn" unicode="&#xde;" horiz-adv-x="1366" 
 />
    <glyph glyph-name="germandbls" unicode="&#xdf;" horiz-adv-x="1251" 
 />
    <glyph glyph-name="agrave" unicode="&#xe0;" 
 />
    <glyph glyph-name="aacute" unicode="&#xe1;" 
 />
    <glyph glyph-name="acircumflex" unicode="&#xe2;" 
 />
    <glyph glyph-name="atilde" unicode="&#xe3;" 
 />
    <glyph glyph-name="adieresis" unicode="&#xe4;" 
 />
    <glyph glyph-name="aring" unicode="&#xe5;" 
 />
    <glyph glyph-name="ae" unicode="&#xe6;" horiz-adv-x="1821" 
 />
    <glyph glyph-name="ccedilla" unicode="&#xe7;" horiz-adv-x="1024" 
 />
    <glyph glyph-name="egrave" unicode="&#xe8;" 
 />
    <glyph glyph-name="eacute" unicode="&#xe9;" 
 />
    <glyph glyph-name="ecircumflex" unicode="&#xea;" 
 />
    <glyph glyph-name="edieresis" unicode="&#xeb;" 
 />
    <glyph glyph-name="igrave" unicode="&#xec;" horiz-adv-x="569" 
 />
    <glyph glyph-name="iacute" unicode="&#xed;" horiz-adv-x="569" 
 />
    <glyph glyph-name="icircumflex" unicode="&#xee;" horiz-adv-x="569" 
 />
    <glyph glyph-name="idieresis" unicode="&#xef;" horiz-adv-x="569" 
 />
    <glyph glyph-name="eth" unicode="&#xf0;" 
 />
    <glyph glyph-name="ntilde" unicode="&#xf1;" 
 />
    <glyph glyph-name="ograve" unicode="&#xf2;" 
 />
    <glyph glyph-name="oacute" unicode="&#xf3;" 
 />
    <glyph glyph-name="ocircumflex" unicode="&#xf4;" 
 />
    <glyph glyph-name="otilde" unicode="&#xf5;" 
 />
    <glyph glyph-name="odieresis" unicode="&#xf6;" 
 />
    <glyph glyph-name="divide" unicode="&#xf7;" horiz-adv-x="1124" 
 />
    <glyph glyph-name="oslash" unicode="&#xf8;" horiz-adv-x="1251" 
 />
    <glyph glyph-name="ugrave" unicode="&#xf9;" 
 />
    <glyph glyph-name="uacute" unicode="&#xfa;" 
 />
    <glyph glyph-name="ucircumflex" unicode="&#xfb;" 
 />
    <glyph glyph-name="udieresis" unicode="&#xfc;" 
 />
    <glyph glyph-name="yacute" unicode="&#xfd;" horiz-adv-x="1024" 
 />
    <glyph glyph-name="thorn" unicode="&#xfe;" 
 />
    <glyph glyph-name="ydieresis" unicode="&#xff;" horiz-adv-x="1024" 
 />
    <glyph glyph-name="Amacron" unicode="&#x100;" horiz-adv-x="1366" 
 />
    <glyph glyph-name="amacron" unicode="&#x101;" 
 />
    <glyph glyph-name="Abreve" unicode="&#x102;" horiz-adv-x="1366" 
 />
    <glyph glyph-name="abreve" unicode="&#x103;" 
 />
    <glyph glyph-name="Aogonek" unicode="&#x104;" horiz-adv-x="1366" 
 />
    <glyph glyph-name="aogonek" unicode="&#x105;" 
 />
    <glyph glyph-name="Cacute" unicode="&#x106;" horiz-adv-x="1479" 
 />
    <glyph glyph-name="cacute" unicode="&#x107;" horiz-adv-x="1024" 
 />
    <glyph glyph-name="Ccircumflex" unicode="&#x108;" horiz-adv-x="1479" 
 />
    <glyph glyph-name="ccircumflex" unicode="&#x109;" horiz-adv-x="1024" 
 />
    <glyph glyph-name="Cdotaccent" unicode="&#x10a;" horiz-adv-x="1479" 
 />
    <glyph glyph-name="cdotaccent" unicode="&#x10b;" horiz-adv-x="1024" 
 />
    <glyph glyph-name="Ccaron" unicode="&#x10c;" horiz-adv-x="1479" 
 />
    <glyph glyph-name="ccaron" unicode="&#x10d;" horiz-adv-x="1024" 
 />
    <glyph glyph-name="Dcaron" unicode="&#x10e;" horiz-adv-x="1479" 
 />
    <glyph glyph-name="dcaron" unicode="&#x10f;" horiz-adv-x="1259" 
 />
    <glyph glyph-name="Dcroat" unicode="&#x110;" horiz-adv-x="1479" 
 />
    <glyph glyph-name="dcroat" unicode="&#x111;" 
 />
    <glyph glyph-name="Emacron" unicode="&#x112;" horiz-adv-x="1366" 
 />
    <glyph glyph-name="emacron" unicode="&#x113;" 
 />
    <glyph glyph-name="Ebreve" unicode="&#x114;" horiz-adv-x="1366" 
 />
    <glyph glyph-name="ebreve" unicode="&#x115;" 
 />
    <glyph glyph-name="Edotaccent" unicode="&#x116;" horiz-adv-x="1366" 
 />
    <glyph glyph-name="edotaccent" unicode="&#x117;" 
 />
    <glyph glyph-name="Eogonek" unicode="&#x118;" horiz-adv-x="1366" 
 />
    <glyph glyph-name="eogonek" unicode="&#x119;" 
 />
    <glyph glyph-name="Ecaron" unicode="&#x11a;" horiz-adv-x="1366" 
 />
    <glyph glyph-name="ecaron" unicode="&#x11b;" 
 />
    <glyph glyph-name="Gcircumflex" unicode="&#x11c;" horiz-adv-x="1593" 
 />
    <glyph glyph-name="gcircumflex" unicode="&#x11d;" 
 />
    <glyph glyph-name="Gbreve" unicode="&#x11e;" horiz-adv-x="1593" 
 />
    <glyph glyph-name="gbreve" unicode="&#x11f;" 
 />
    <glyph glyph-name="Gdotaccent" unicode="&#x120;" horiz-adv-x="1593" 
 />
    <glyph glyph-name="gdotaccent" unicode="&#x121;" 
 />
    <glyph glyph-name="Gcommaaccent" unicode="&#x122;" horiz-adv-x="1593" 
 />
    <glyph glyph-name="gcommaaccent" unicode="&#x123;" 
 />
    <glyph glyph-name="Hcircumflex" unicode="&#x124;" horiz-adv-x="1479" 
 />
    <glyph glyph-name="hcircumflex" unicode="&#x125;" 
 />
    <glyph glyph-name="Hbar" unicode="&#x126;" horiz-adv-x="1479" 
 />
    <glyph glyph-name="hbar" unicode="&#x127;" 
 />
    <glyph glyph-name="Itilde" unicode="&#x128;" horiz-adv-x="569" 
 />
    <glyph glyph-name="itilde" unicode="&#x129;" horiz-adv-x="569" 
 />
    <glyph glyph-name="Imacron" unicode="&#x12a;" horiz-adv-x="569" 
 />
    <glyph glyph-name="imacron" unicode="&#x12b;" horiz-adv-x="569" 
 />
    <glyph glyph-name="Ibreve" unicode="&#x12c;" horiz-adv-x="569" 
 />
    <glyph glyph-name="ibreve" unicode="&#x12d;" horiz-adv-x="569" 
 />
    <glyph glyph-name="Iogonek" unicode="&#x12e;" horiz-adv-x="569" 
 />
    <glyph glyph-name="iogonek" unicode="&#x12f;" horiz-adv-x="455" 
 />
    <glyph glyph-name="Idotaccent" unicode="&#x130;" horiz-adv-x="569" 
 />
    <glyph glyph-name="dotlessi" unicode="&#x131;" horiz-adv-x="569" 
 />
    <glyph glyph-name="IJ" unicode="&#x132;" horiz-adv-x="1505" 
 />
    <glyph glyph-name="ij" unicode="&#x133;" horiz-adv-x="909" 
 />
    <glyph glyph-name="Jcircumflex" unicode="&#x134;" horiz-adv-x="1024" 
 />
    <glyph glyph-name="jcircumflex" unicode="&#x135;" horiz-adv-x="455" 
 />
    <glyph glyph-name="Kcommaaccent" unicode="&#x136;" horiz-adv-x="1366" 
 />
    <glyph glyph-name="kcommaaccent" unicode="&#x137;" horiz-adv-x="1024" 
 />
    <glyph glyph-name="kgreenlandic" unicode="&#x138;" horiz-adv-x="1024" 
 />
    <glyph glyph-name="Lacute" unicode="&#x139;" 
 />
    <glyph glyph-name="lacute" unicode="&#x13a;" horiz-adv-x="455" 
 />
    <glyph glyph-name="Lcommaaccent" unicode="&#x13b;" 
 />
    <glyph glyph-name="lcommaaccent" unicode="&#x13c;" horiz-adv-x="455" 
 />
    <glyph glyph-name="Lcaron" unicode="&#x13d;" 
 />
    <glyph glyph-name="lcaron" unicode="&#x13e;" horiz-adv-x="597" 
 />
    <glyph glyph-name="Ldot" unicode="&#x13f;" 
 />
    <glyph glyph-name="ldot" unicode="&#x140;" horiz-adv-x="684" 
 />
    <glyph glyph-name="Lslash" unicode="&#x141;" 
 />
    <glyph glyph-name="lslash" unicode="&#x142;" horiz-adv-x="455" 
 />
    <glyph glyph-name="Nacute" unicode="&#x143;" horiz-adv-x="1479" 
 />
    <glyph glyph-name="nacute" unicode="&#x144;" 
 />
    <glyph glyph-name="Ncommaaccent" unicode="&#x145;" horiz-adv-x="1479" 
 />
    <glyph glyph-name="ncommaaccent" unicode="&#x146;" 
 />
    <glyph glyph-name="Ncaron" unicode="&#x147;" horiz-adv-x="1479" 
 />
    <glyph glyph-name="ncaron" unicode="&#x148;" 
 />
    <glyph glyph-name="napostrophe" unicode="&#x149;" horiz-adv-x="1237" 
 />
    <glyph glyph-name="Eng" unicode="&#x14a;" horiz-adv-x="1481" 
 />
    <glyph glyph-name="eng" unicode="&#x14b;" 
 />
    <glyph glyph-name="Omacron" unicode="&#x14c;" horiz-adv-x="1593" 
 />
    <glyph glyph-name="omacron" unicode="&#x14d;" 
 />
    <glyph glyph-name="Obreve" unicode="&#x14e;" horiz-adv-x="1593" 
 />
    <glyph glyph-name="obreve" unicode="&#x14f;" 
 />
    <glyph glyph-name="Ohungarumlaut" unicode="&#x150;" horiz-adv-x="1593" 
 />
    <glyph glyph-name="ohungarumlaut" unicode="&#x151;" 
 />
    <glyph glyph-name="OE" unicode="&#x152;" horiz-adv-x="2048" 
 />
    <glyph glyph-name="oe" unicode="&#x153;" horiz-adv-x="1933" 
 />
    <glyph glyph-name="Racute" unicode="&#x154;" horiz-adv-x="1479" 
 />
    <glyph glyph-name="racute" unicode="&#x155;" horiz-adv-x="682" 
 />
    <glyph glyph-name="Rcommaaccent" unicode="&#x156;" horiz-adv-x="1479" 
 />
    <glyph glyph-name="rcommaaccent" unicode="&#x157;" horiz-adv-x="682" 
 />
    <glyph glyph-name="Rcaron" unicode="&#x158;" horiz-adv-x="1479" 
 />
    <glyph glyph-name="rcaron" unicode="&#x159;" horiz-adv-x="682" 
 />
    <glyph glyph-name="Sacute" unicode="&#x15a;" horiz-adv-x="1366" 
 />
    <glyph glyph-name="sacute" unicode="&#x15b;" horiz-adv-x="1024" 
 />
    <glyph glyph-name="Scircumflex" unicode="&#x15c;" horiz-adv-x="1366" 
 />
    <glyph glyph-name="scircumflex" unicode="&#x15d;" horiz-adv-x="1024" 
 />
    <glyph glyph-name="Scedilla" unicode="&#x15e;" horiz-adv-x="1366" 
 />
    <glyph glyph-name="scedilla" unicode="&#x15f;" horiz-adv-x="1024" 
 />
    <glyph glyph-name="Scaron" unicode="&#x160;" horiz-adv-x="1366" 
 />
    <glyph glyph-name="scaron" unicode="&#x161;" horiz-adv-x="1024" 
 />
    <glyph glyph-name="Tcommaaccent" unicode="&#x162;" horiz-adv-x="1251" 
 />
    <glyph glyph-name="tcommaaccent" unicode="&#x163;" horiz-adv-x="569" 
 />
    <glyph glyph-name="Tcaron" unicode="&#x164;" horiz-adv-x="1251" 
 />
    <glyph glyph-name="tcaron" unicode="&#x165;" horiz-adv-x="768" 
 />
    <glyph glyph-name="Tbar" unicode="&#x166;" horiz-adv-x="1251" 
 />
    <glyph glyph-name="tbar" unicode="&#x167;" horiz-adv-x="569" 
 />
    <glyph glyph-name="Utilde" unicode="&#x168;" horiz-adv-x="1479" 
 />
    <glyph glyph-name="utilde" unicode="&#x169;" 
 />
    <glyph glyph-name="Umacron" unicode="&#x16a;" horiz-adv-x="1479" 
 />
    <glyph glyph-name="umacron" unicode="&#x16b;" 
 />
    <glyph glyph-name="Ubreve" unicode="&#x16c;" horiz-adv-x="1479" 
 />
    <glyph glyph-name="ubreve" unicode="&#x16d;" 
 />
    <glyph glyph-name="Uring" unicode="&#x16e;" horiz-adv-x="1479" 
 />
    <glyph glyph-name="uring" unicode="&#x16f;" 
 />
    <glyph glyph-name="Uhungarumlaut" unicode="&#x170;" horiz-adv-x="1479" 
 />
    <glyph glyph-name="uhungarumlaut" unicode="&#x171;" 
 />
    <glyph glyph-name="Uogonek" unicode="&#x172;" horiz-adv-x="1479" 
 />
    <glyph glyph-name="uogonek" unicode="&#x173;" 
 />
    <glyph glyph-name="Wcircumflex" unicode="&#x174;" horiz-adv-x="1933" 
 />
    <glyph glyph-name="wcircumflex" unicode="&#x175;" horiz-adv-x="1479" 
 />
    <glyph glyph-name="Ycircumflex" unicode="&#x176;" horiz-adv-x="1366" 
 />
    <glyph glyph-name="ycircumflex" unicode="&#x177;" horiz-adv-x="1024" 
 />
    <glyph glyph-name="Ydieresis" unicode="&#x178;" horiz-adv-x="1366" 
 />
    <glyph glyph-name="Zacute" unicode="&#x179;" horiz-adv-x="1251" 
 />
    <glyph glyph-name="zacute" unicode="&#x17a;" horiz-adv-x="1024" 
 />
    <glyph glyph-name="Zdotaccent" unicode="&#x17b;" horiz-adv-x="1251" 
 />
    <glyph glyph-name="zdotaccent" unicode="&#x17c;" horiz-adv-x="1024" 
 />
    <glyph glyph-name="Zcaron" unicode="&#x17d;" horiz-adv-x="1251" 
 />
    <glyph glyph-name="zcaron" unicode="&#x17e;" horiz-adv-x="1024" 
 />
    <glyph glyph-name="longs" unicode="&#x17f;" horiz-adv-x="455" 
 />
    <glyph glyph-name="florin" unicode="&#x192;" 
 />
    <glyph glyph-name="Aringacute" unicode="&#x1fa;" horiz-adv-x="1366" 
 />
    <glyph glyph-name="aringacute" unicode="&#x1fb;" 
 />
    <glyph glyph-name="AEacute" unicode="&#x1fc;" horiz-adv-x="2048" 
 />
    <glyph glyph-name="aeacute" unicode="&#x1fd;" horiz-adv-x="1821" 
 />
    <glyph glyph-name="Oslashacute" unicode="&#x1fe;" horiz-adv-x="1593" 
 />
    <glyph glyph-name="oslashacute" unicode="&#x1ff;" horiz-adv-x="1251" 
 />
    <glyph glyph-name="circumflex" unicode="&#x2c6;" horiz-adv-x="682" 
 />
    <glyph glyph-name="caron" unicode="&#x2c7;" horiz-adv-x="682" 
 />
    <glyph glyph-name="uni02C9" unicode="&#x2c9;" horiz-adv-x="682" 
 />
    <glyph glyph-name="breve" unicode="&#x2d8;" horiz-adv-x="682" 
 />
    <glyph glyph-name="dotaccent" unicode="&#x2d9;" horiz-adv-x="682" 
 />
    <glyph glyph-name="ring" unicode="&#x2da;" horiz-adv-x="682" 
 />
    <glyph glyph-name="ogonek" unicode="&#x2db;" horiz-adv-x="682" 
 />
    <glyph glyph-name="tilde" unicode="&#x2dc;" horiz-adv-x="682" 
 />
    <glyph glyph-name="hungarumlaut" unicode="&#x2dd;" horiz-adv-x="682" 
 />
    <glyph glyph-name="tonos" unicode="&#x384;" horiz-adv-x="682" 
 />
    <glyph glyph-name="dieresistonos" unicode="&#x385;" horiz-adv-x="682" 
 />
    <glyph glyph-name="Alphatonos" unicode="&#x386;" horiz-adv-x="1367" 
 />
    <glyph glyph-name="anoteleia" unicode="&#x387;" horiz-adv-x="569" 
 />
    <glyph glyph-name="Epsilontonos" unicode="&#x388;" horiz-adv-x="1606" 
 />
    <glyph glyph-name="Etatonos" unicode="&#x389;" horiz-adv-x="1716" 
 />
    <glyph glyph-name="Iotatonos" unicode="&#x38a;" horiz-adv-x="786" 
 />
    <glyph glyph-name="Omicrontonos" unicode="&#x38c;" horiz-adv-x="1586" 
 />
    <glyph glyph-name="Upsilontonos" unicode="&#x38e;" horiz-adv-x="1752" 
 />
    <glyph glyph-name="Omegatonos" unicode="&#x38f;" horiz-adv-x="1541" 
 />
    <glyph glyph-name="iotadieresistonos" unicode="&#x390;" horiz-adv-x="455" 
 />
    <glyph glyph-name="Alpha" unicode="&#x391;" horiz-adv-x="1366" 
 />
    <glyph glyph-name="Beta" unicode="&#x392;" horiz-adv-x="1366" 
 />
    <glyph glyph-name="Gamma" unicode="&#x393;" horiz-adv-x="1128" 
 />
    <glyph glyph-name="uni0394" unicode="&#x394;" horiz-adv-x="1368" 
 />
    <glyph glyph-name="Epsilon" unicode="&#x395;" horiz-adv-x="1366" 
 />
    <glyph glyph-name="Zeta" unicode="&#x396;" horiz-adv-x="1251" 
 />
    <glyph glyph-name="Eta" unicode="&#x397;" horiz-adv-x="1479" 
 />
    <glyph glyph-name="Theta" unicode="&#x398;" horiz-adv-x="1593" 
 />
    <glyph glyph-name="Iota" unicode="&#x399;" horiz-adv-x="569" 
 />
    <glyph glyph-name="Kappa" unicode="&#x39a;" horiz-adv-x="1366" 
 />
    <glyph glyph-name="Lambda" unicode="&#x39b;" horiz-adv-x="1368" 
 />
    <glyph glyph-name="Mu" unicode="&#x39c;" horiz-adv-x="1706" 
 />
    <glyph glyph-name="Nu" unicode="&#x39d;" horiz-adv-x="1479" 
 />
    <glyph glyph-name="Xi" unicode="&#x39e;" horiz-adv-x="1331" 
 />
    <glyph glyph-name="Omicron" unicode="&#x39f;" horiz-adv-x="1593" 
 />
    <glyph glyph-name="Pi" unicode="&#x3a0;" horiz-adv-x="1479" 
 />
    <glyph glyph-name="Rho" unicode="&#x3a1;" horiz-adv-x="1366" 
 />
    <glyph glyph-name="Sigma" unicode="&#x3a3;" horiz-adv-x="1266" 
 />
    <glyph glyph-name="Tau" unicode="&#x3a4;" horiz-adv-x="1251" 
 />
    <glyph glyph-name="Upsilon" unicode="&#x3a5;" horiz-adv-x="1366" 
 />
    <glyph glyph-name="Phi" unicode="&#x3a6;" horiz-adv-x="1634" 
 />
    <glyph glyph-name="Chi" unicode="&#x3a7;" horiz-adv-x="1366" 
 />
    <glyph glyph-name="Psi" unicode="&#x3a8;" horiz-adv-x="1711" 
 />
    <glyph glyph-name="uni03A9" unicode="&#x3a9;" horiz-adv-x="1531" 
 />
    <glyph glyph-name="Iotadieresis" unicode="&#x3aa;" horiz-adv-x="569" 
 />
    <glyph glyph-name="Upsilondieresis" unicode="&#x3ab;" horiz-adv-x="1366" 
 />
    <glyph glyph-name="alphatonos" unicode="&#x3ac;" horiz-adv-x="1184" 
 />
    <glyph glyph-name="epsilontonos" unicode="&#x3ad;" horiz-adv-x="913" 
 />
    <glyph glyph-name="etatonos" unicode="&#x3ae;" 
 />
    <glyph glyph-name="iotatonos" unicode="&#x3af;" horiz-adv-x="455" 
 />
    <glyph glyph-name="upsilondieresistonos" unicode="&#x3b0;" horiz-adv-x="1120" 
 />
    <glyph glyph-name="alpha" unicode="&#x3b1;" horiz-adv-x="1184" 
 />
    <glyph glyph-name="beta" unicode="&#x3b2;" horiz-adv-x="1178" 
 />
    <glyph glyph-name="gamma" unicode="&#x3b3;" horiz-adv-x="1024" 
 />
    <glyph glyph-name="delta" unicode="&#x3b4;" horiz-adv-x="1140" 
 />
    <glyph glyph-name="epsilon" unicode="&#x3b5;" horiz-adv-x="913" 
 />
    <glyph glyph-name="zeta" unicode="&#x3b6;" horiz-adv-x="903" 
 />
    <glyph glyph-name="eta" unicode="&#x3b7;" 
 />
    <glyph glyph-name="theta" unicode="&#x3b8;" 
 />
    <glyph glyph-name="iota" unicode="&#x3b9;" horiz-adv-x="455" 
 />
    <glyph glyph-name="kappa" unicode="&#x3ba;" horiz-adv-x="1024" 
 />
    <glyph glyph-name="lambda" unicode="&#x3bb;" horiz-adv-x="1024" 
 />
    <glyph glyph-name="uni03BC" unicode="&#x3bc;" horiz-adv-x="1180" 
 />
    <glyph glyph-name="nu" unicode="&#x3bd;" horiz-adv-x="1024" 
 />
    <glyph glyph-name="xi" unicode="&#x3be;" horiz-adv-x="917" 
 />
    <glyph glyph-name="omicron" unicode="&#x3bf;" 
 />
    <glyph glyph-name="pi" unicode="&#x3c0;" horiz-adv-x="1413" 
 />
    <glyph glyph-name="rho" unicode="&#x3c1;" horiz-adv-x="1165" 
 />
    <glyph glyph-name="sigma1" unicode="&#x3c2;" horiz-adv-x="987" 
 />
    <glyph glyph-name="sigma" unicode="&#x3c3;" horiz-adv-x="1264" 
 />
    <glyph glyph-name="tau" unicode="&#x3c4;" horiz-adv-x="809" 
 />
    <glyph glyph-name="upsilon" unicode="&#x3c5;" horiz-adv-x="1120" 
 />
    <glyph glyph-name="phi" unicode="&#x3c6;" horiz-adv-x="1328" 
 />
    <glyph glyph-name="chi" unicode="&#x3c7;" horiz-adv-x="1075" 
 />
    <glyph glyph-name="psi" unicode="&#x3c8;" horiz-adv-x="1460" 
 />
    <glyph glyph-name="omega" unicode="&#x3c9;" horiz-adv-x="1599" 
 />
    <glyph glyph-name="iotadieresis" unicode="&#x3ca;" horiz-adv-x="455" 
 />
    <glyph glyph-name="upsilondieresis" unicode="&#x3cb;" horiz-adv-x="1120" 
 />
    <glyph glyph-name="omicrontonos" unicode="&#x3cc;" 
 />
    <glyph glyph-name="upsilontonos" unicode="&#x3cd;" horiz-adv-x="1120" 
 />
    <glyph glyph-name="omegatonos" unicode="&#x3ce;" horiz-adv-x="1599" 
 />
    <glyph glyph-name="afii10023" unicode="&#x401;" horiz-adv-x="1367" 
 />
    <glyph glyph-name="afii10051" unicode="&#x402;" horiz-adv-x="1771" 
 />
    <glyph glyph-name="afii10052" unicode="&#x403;" horiz-adv-x="1109" 
 />
    <glyph glyph-name="afii10053" unicode="&#x404;" horiz-adv-x="1472" 
 />
    <glyph glyph-name="afii10054" unicode="&#x405;" horiz-adv-x="1366" 
 />
    <glyph glyph-name="afii10055" unicode="&#x406;" horiz-adv-x="569" 
 />
    <glyph glyph-name="afii10056" unicode="&#x407;" horiz-adv-x="569" 
 />
    <glyph glyph-name="afii10057" unicode="&#x408;" horiz-adv-x="1024" 
 />
    <glyph glyph-name="afii10058" unicode="&#x409;" horiz-adv-x="2165" 
 />
    <glyph glyph-name="afii10059" unicode="&#x40a;" horiz-adv-x="2069" 
 />
    <glyph glyph-name="afii10060" unicode="&#x40b;" horiz-adv-x="1749" 
 />
    <glyph glyph-name="afii10061" unicode="&#x40c;" horiz-adv-x="1193" 
 />
    <glyph glyph-name="afii10062" unicode="&#x40e;" horiz-adv-x="1301" 
 />
    <glyph glyph-name="afii10145" unicode="&#x40f;" horiz-adv-x="1472" 
 />
    <glyph glyph-name="afii10017" unicode="&#x410;" horiz-adv-x="1366" 
 />
    <glyph glyph-name="afii10018" unicode="&#x411;" horiz-adv-x="1344" 
 />
    <glyph glyph-name="afii10019" unicode="&#x412;" horiz-adv-x="1366" 
 />
    <glyph glyph-name="afii10020" unicode="&#x413;" horiz-adv-x="1109" 
 />
    <glyph glyph-name="afii10021" unicode="&#x414;" horiz-adv-x="1387" 
 />
    <glyph glyph-name="afii10022" unicode="&#x415;" horiz-adv-x="1366" 
 />
    <glyph glyph-name="afii10024" unicode="&#x416;" horiz-adv-x="1891" 
 />
    <glyph glyph-name="afii10025" unicode="&#x417;" horiz-adv-x="1237" 
 />
    <glyph glyph-name="afii10026" unicode="&#x418;" horiz-adv-x="1472" 
 />
    <glyph glyph-name="afii10027" unicode="&#x419;" horiz-adv-x="1472" 
 />
    <glyph glyph-name="afii10028" unicode="&#x41a;" horiz-adv-x="1193" 
 />
    <glyph glyph-name="afii10029" unicode="&#x41b;" horiz-adv-x="1344" 
 />
    <glyph glyph-name="afii10030" unicode="&#x41c;" horiz-adv-x="1706" 
 />
    <glyph glyph-name="afii10031" unicode="&#x41d;" horiz-adv-x="1479" 
 />
    <glyph glyph-name="afii10032" unicode="&#x41e;" horiz-adv-x="1593" 
 />
    <glyph glyph-name="afii10033" unicode="&#x41f;" horiz-adv-x="1472" 
 />
    <glyph glyph-name="afii10034" unicode="&#x420;" horiz-adv-x="1366" 
 />
    <glyph glyph-name="afii10035" unicode="&#x421;" horiz-adv-x="1479" 
 />
    <glyph glyph-name="afii10036" unicode="&#x422;" horiz-adv-x="1251" 
 />
    <glyph glyph-name="afii10037" unicode="&#x423;" horiz-adv-x="1301" 
 />
    <glyph glyph-name="afii10038" unicode="&#x424;" horiz-adv-x="1557" 
 />
    <glyph glyph-name="afii10039" unicode="&#x425;" horiz-adv-x="1366" 
 />
    <glyph glyph-name="afii10040" unicode="&#x426;" horiz-adv-x="1515" 
 />
    <glyph glyph-name="afii10041" unicode="&#x427;" horiz-adv-x="1365" 
 />
    <glyph glyph-name="afii10042" unicode="&#x428;" horiz-adv-x="1877" 
 />
    <glyph glyph-name="afii10043" unicode="&#x429;" horiz-adv-x="1920" 
 />
    <glyph glyph-name="afii10044" unicode="&#x42a;" horiz-adv-x="1621" 
 />
    <glyph glyph-name="afii10045" unicode="&#x42b;" horiz-adv-x="1813" 
 />
    <glyph glyph-name="afii10046" unicode="&#x42c;" horiz-adv-x="1344" 
 />
    <glyph glyph-name="afii10047" unicode="&#x42d;" horiz-adv-x="1472" 
 />
    <glyph glyph-name="afii10048" unicode="&#x42e;" horiz-adv-x="2069" 
 />
    <glyph glyph-name="afii10049" unicode="&#x42f;" horiz-adv-x="1479" 
 />
    <glyph glyph-name="afii10065" unicode="&#x430;" 
 />
    <glyph glyph-name="afii10066" unicode="&#x431;" horiz-adv-x="1173" 
 />
    <glyph glyph-name="afii10067" unicode="&#x432;" horiz-adv-x="1088" 
 />
    <glyph glyph-name="afii10068" unicode="&#x433;" horiz-adv-x="747" 
 />
    <glyph glyph-name="afii10069" unicode="&#x434;" horiz-adv-x="1195" 
 />
    <glyph glyph-name="afii10070" unicode="&#x435;" 
 />
    <glyph glyph-name="afii10072" unicode="&#x436;" horiz-adv-x="1370" 
 />
    <glyph glyph-name="afii10073" unicode="&#x437;" horiz-adv-x="939" 
 />
    <glyph glyph-name="afii10074" unicode="&#x438;" horiz-adv-x="1144" 
 />
    <glyph glyph-name="afii10075" unicode="&#x439;" horiz-adv-x="1144" 
 />
    <glyph glyph-name="afii10076" unicode="&#x43a;" horiz-adv-x="896" 
 />
    <glyph glyph-name="afii10077" unicode="&#x43b;" horiz-adv-x="1195" 
 />
    <glyph glyph-name="afii10078" unicode="&#x43c;" horiz-adv-x="1408" 
 />
    <glyph glyph-name="afii10079" unicode="&#x43d;" horiz-adv-x="1131" 
 />
    <glyph glyph-name="afii10080" unicode="&#x43e;" 
 />
    <glyph glyph-name="afii10081" unicode="&#x43f;" horiz-adv-x="1109" 
 />
    <glyph glyph-name="afii10082" unicode="&#x440;" 
 />
    <glyph glyph-name="afii10083" unicode="&#x441;" horiz-adv-x="1024" 
 />
    <glyph glyph-name="afii10084" unicode="&#x442;" horiz-adv-x="938" 
 />
    <glyph glyph-name="afii10085" unicode="&#x443;" horiz-adv-x="1024" 
 />
    <glyph glyph-name="afii10086" unicode="&#x444;" horiz-adv-x="1685" 
 />
    <glyph glyph-name="afii10087" unicode="&#x445;" horiz-adv-x="1024" 
 />
    <glyph glyph-name="afii10088" unicode="&#x446;" horiz-adv-x="1173" 
 />
    <glyph glyph-name="afii10089" unicode="&#x447;" horiz-adv-x="1067" 
 />
    <glyph glyph-name="afii10090" unicode="&#x448;" horiz-adv-x="1643" 
 />
    <glyph glyph-name="afii10091" unicode="&#x449;" horiz-adv-x="1685" 
 />
    <glyph glyph-name="afii10092" unicode="&#x44a;" horiz-adv-x="1280" 
 />
    <glyph glyph-name="afii10093" unicode="&#x44b;" horiz-adv-x="1472" 
 />
    <glyph glyph-name="afii10094" unicode="&#x44c;" horiz-adv-x="1067" 
 />
    <glyph glyph-name="afii10095" unicode="&#x44d;" horiz-adv-x="1045" 
 />
    <glyph glyph-name="afii10096" unicode="&#x44e;" horiz-adv-x="1536" 
 />
    <glyph glyph-name="afii10097" unicode="&#x44f;" horiz-adv-x="1109" 
 />
    <glyph glyph-name="afii10071" unicode="&#x451;" 
 />
    <glyph glyph-name="afii10099" unicode="&#x452;" 
 />
    <glyph glyph-name="afii10100" unicode="&#x453;" horiz-adv-x="747" 
 />
    <glyph glyph-name="afii10101" unicode="&#x454;" horiz-adv-x="1045" 
 />
    <glyph glyph-name="afii10102" unicode="&#x455;" horiz-adv-x="1024" 
 />
    <glyph glyph-name="afii10103" unicode="&#x456;" horiz-adv-x="455" 
 />
    <glyph glyph-name="afii10104" unicode="&#x457;" horiz-adv-x="569" 
 />
    <glyph glyph-name="afii10105" unicode="&#x458;" horiz-adv-x="455" 
 />
    <glyph glyph-name="afii10106" unicode="&#x459;" horiz-adv-x="1856" 
 />
    <glyph glyph-name="afii10107" unicode="&#x45a;" horiz-adv-x="1664" 
 />
    <glyph glyph-name="afii10108" unicode="&#x45b;" 
 />
    <glyph glyph-name="afii10109" unicode="&#x45c;" horiz-adv-x="896" 
 />
    <glyph glyph-name="afii10110" unicode="&#x45e;" horiz-adv-x="1024" 
 />
    <glyph glyph-name="afii10193" unicode="&#x45f;" horiz-adv-x="1131" 
 />
    <glyph glyph-name="afii10050" unicode="&#x490;" horiz-adv-x="1001" 
 />
    <glyph glyph-name="afii10098" unicode="&#x491;" horiz-adv-x="842" 
 />
    <glyph glyph-name="Wgrave" unicode="&#x1e80;" horiz-adv-x="1933" 
 />
    <glyph glyph-name="wgrave" unicode="&#x1e81;" horiz-adv-x="1479" 
 />
    <glyph glyph-name="Wacute" unicode="&#x1e82;" horiz-adv-x="1933" 
 />
    <glyph glyph-name="wacute" unicode="&#x1e83;" horiz-adv-x="1479" 
 />
    <glyph glyph-name="Wdieresis" unicode="&#x1e84;" horiz-adv-x="1933" 
 />
    <glyph glyph-name="wdieresis" unicode="&#x1e85;" horiz-adv-x="1479" 
 />
    <glyph glyph-name="Ygrave" unicode="&#x1ef2;" horiz-adv-x="1366" 
 />
    <glyph glyph-name="ygrave" unicode="&#x1ef3;" horiz-adv-x="1024" 
 />
    <glyph glyph-name="endash" unicode="&#x2013;" 
 />
    <glyph glyph-name="emdash" unicode="&#x2014;" horiz-adv-x="2048" 
 />
    <glyph glyph-name="afii00208" unicode="&#x2015;" horiz-adv-x="2048" 
 />
    <glyph glyph-name="underscoredbl" unicode="&#x2017;" horiz-adv-x="1131" 
 />
    <glyph glyph-name="quoteleft" unicode="&#x2018;" horiz-adv-x="455" 
 />
    <glyph glyph-name="quoteright" unicode="&#x2019;" horiz-adv-x="455" 
 />
    <glyph glyph-name="quotesinglbase" unicode="&#x201a;" horiz-adv-x="455" 
 />
    <glyph glyph-name="quotereversed" unicode="&#x201b;" horiz-adv-x="455" 
 />
    <glyph glyph-name="quotedblleft" unicode="&#x201c;" horiz-adv-x="682" 
 />
    <glyph glyph-name="quotedblright" unicode="&#x201d;" horiz-adv-x="682" 
 />
    <glyph glyph-name="quotedblbase" unicode="&#x201e;" horiz-adv-x="682" 
 />
    <glyph glyph-name="dagger" unicode="&#x2020;" 
 />
    <glyph glyph-name="daggerdbl" unicode="&#x2021;" 
 />
    <glyph glyph-name="bullet" unicode="&#x2022;" horiz-adv-x="717" 
 />
    <glyph glyph-name="ellipsis" unicode="&#x2026;" horiz-adv-x="2048" 
 />
    <glyph glyph-name="perthousand" unicode="&#x2030;" horiz-adv-x="2048" 
 />
    <glyph glyph-name="minute" unicode="&#x2032;" horiz-adv-x="384" 
 />
    <glyph glyph-name="second" unicode="&#x2033;" horiz-adv-x="725" 
 />
    <glyph glyph-name="guilsinglleft" unicode="&#x2039;" horiz-adv-x="682" 
 />
    <glyph glyph-name="guilsinglright" unicode="&#x203a;" horiz-adv-x="682" 
 />
    <glyph glyph-name="exclamdbl" unicode="&#x203c;" horiz-adv-x="1024" 
 />
    <glyph glyph-name="uni203E" unicode="&#x203e;" horiz-adv-x="682" 
 />
    <glyph glyph-name="fraction" unicode="&#x2044;" horiz-adv-x="342" 
 />
    <glyph glyph-name="fraction" unicode="&#x2215;" horiz-adv-x="342" 
 />
    <glyph glyph-name="uni207F" unicode="&#x207f;" horiz-adv-x="747" 
 />
    <glyph glyph-name="franc" unicode="&#x20a3;" 
 />
    <glyph glyph-name="lira" unicode="&#x20a4;" 
 />
    <glyph glyph-name="peseta" unicode="&#x20a7;" horiz-adv-x="2240" 
 />
    <glyph glyph-name="Euro" unicode="&#x20ac;" 
 />
    <glyph glyph-name="afii61248" unicode="&#x2105;" horiz-adv-x="1813" 
 />
    <glyph glyph-name="afii61289" unicode="&#x2113;" horiz-adv-x="662" 
 />
    <glyph glyph-name="afii61352" unicode="&#x2116;" horiz-adv-x="2197" 
 />
    <glyph glyph-name="trademark" unicode="&#x2122;" horiz-adv-x="2048" 
 />
    <glyph glyph-name="Omega" unicode="&#x2126;" horiz-adv-x="1573" 
 />
    <glyph glyph-name="estimated" unicode="&#x212e;" horiz-adv-x="1229" 
 />
    <glyph glyph-name="oneeighth" unicode="&#x215b;" horiz-adv-x="1708" 
 />
    <glyph glyph-name="threeeighths" unicode="&#x215c;" horiz-adv-x="1708" 
 />
    <glyph glyph-name="fiveeighths" unicode="&#x215d;" horiz-adv-x="1708" 
 />
    <glyph glyph-name="seveneighths" unicode="&#x215e;" horiz-adv-x="1708" 
 />
    <glyph glyph-name="arrowleft" unicode="&#x2190;" horiz-adv-x="2048" 
 />
    <glyph glyph-name="arrowup" unicode="&#x2191;" horiz-adv-x="1024" 
 />
    <glyph glyph-name="arrowright" unicode="&#x2192;" horiz-adv-x="2048" 
 />
    <glyph glyph-name="arrowdown" unicode="&#x2193;" horiz-adv-x="1024" 
 />
    <glyph glyph-name="arrowboth" unicode="&#x2194;" horiz-adv-x="2048" 
 />
    <glyph glyph-name="arrowupdn" unicode="&#x2195;" horiz-adv-x="1024" 
 />
    <glyph glyph-name="arrowupdnbse" unicode="&#x21a8;" horiz-adv-x="1024" 
 />
    <glyph glyph-name="partialdiff" unicode="&#x2202;" horiz-adv-x="1012" 
 />
    <glyph glyph-name="Delta" unicode="&#x2206;" horiz-adv-x="1253" 
 />
    <glyph glyph-name="product" unicode="&#x220f;" horiz-adv-x="1686" 
 />
    <glyph glyph-name="summation" unicode="&#x2211;" horiz-adv-x="1460" 
 />
    <glyph glyph-name="minus" unicode="&#x2212;" horiz-adv-x="1196" 
 />
    <glyph glyph-name="radical" unicode="&#x221a;" horiz-adv-x="1124" 
 />
    <glyph glyph-name="infinity" unicode="&#x221e;" horiz-adv-x="1460" 
 />
    <glyph glyph-name="orthogonal" unicode="&#x221f;" horiz-adv-x="2005" 
 />
    <glyph glyph-name="intersection" unicode="&#x2229;" horiz-adv-x="1472" 
 />
    <glyph glyph-name="integral" unicode="&#x222b;" horiz-adv-x="561" 
 />
    <glyph glyph-name="approxequal" unicode="&#x2248;" horiz-adv-x="1124" 
 />
    <glyph glyph-name="notequal" unicode="&#x2260;" horiz-adv-x="1124" 
 />
    <glyph glyph-name="equivalence" unicode="&#x2261;" horiz-adv-x="1195" 
 />
    <glyph glyph-name="lessequal" unicode="&#x2264;" horiz-adv-x="1124" 
 />
    <glyph glyph-name="greaterequal" unicode="&#x2265;" horiz-adv-x="1124" 
 />
    <glyph glyph-name="house" unicode="&#x2302;" horiz-adv-x="1237" 
 />
    <glyph glyph-name="revlogicalnot" unicode="&#x2310;" horiz-adv-x="1196" 
 />
    <glyph glyph-name="integraltp" unicode="&#x2320;" horiz-adv-x="1237" 
 />
    <glyph glyph-name="integralbt" unicode="&#x2321;" horiz-adv-x="1237" 
 />
    <glyph glyph-name="SF100000" unicode="&#x2500;" horiz-adv-x="1451" 
 />
    <glyph glyph-name="SF110000" unicode="&#x2502;" horiz-adv-x="1280" 
 />
    <glyph glyph-name="SF010000" unicode="&#x250c;" horiz-adv-x="1451" 
 />
    <glyph glyph-name="SF030000" unicode="&#x2510;" horiz-adv-x="1451" 
 />
    <glyph glyph-name="SF020000" unicode="&#x2514;" horiz-adv-x="1451" 
 />
    <glyph glyph-name="SF040000" unicode="&#x2518;" horiz-adv-x="1451" 
 />
    <glyph glyph-name="SF080000" unicode="&#x251c;" horiz-adv-x="1451" 
 />
    <glyph glyph-name="SF090000" unicode="&#x2524;" horiz-adv-x="1451" 
 />
    <glyph glyph-name="SF060000" unicode="&#x252c;" horiz-adv-x="1451" 
 />
    <glyph glyph-name="SF070000" unicode="&#x2534;" horiz-adv-x="1451" 
 />
    <glyph glyph-name="SF050000" unicode="&#x253c;" horiz-adv-x="1451" 
 />
    <glyph glyph-name="SF430000" unicode="&#x2550;" horiz-adv-x="1451" 
 />
    <glyph glyph-name="SF240000" unicode="&#x2551;" horiz-adv-x="1451" 
 />
    <glyph glyph-name="SF510000" unicode="&#x2552;" horiz-adv-x="1451" 
 />
    <glyph glyph-name="SF520000" unicode="&#x2553;" horiz-adv-x="1451" 
 />
    <glyph glyph-name="SF390000" unicode="&#x2554;" horiz-adv-x="1451" 
 />
    <glyph glyph-name="SF220000" unicode="&#x2555;" horiz-adv-x="1451" 
 />
    <glyph glyph-name="SF210000" unicode="&#x2556;" horiz-adv-x="1451" 
 />
    <glyph glyph-name="SF250000" unicode="&#x2557;" horiz-adv-x="1451" 
 />
    <glyph glyph-name="SF500000" unicode="&#x2558;" horiz-adv-x="1451" 
 />
    <glyph glyph-name="SF490000" unicode="&#x2559;" horiz-adv-x="1451" 
 />
    <glyph glyph-name="SF380000" unicode="&#x255a;" horiz-adv-x="1451" 
 />
    <glyph glyph-name="SF280000" unicode="&#x255b;" horiz-adv-x="1451" 
 />
    <glyph glyph-name="SF270000" unicode="&#x255c;" horiz-adv-x="1451" 
 />
    <glyph glyph-name="SF260000" unicode="&#x255d;" horiz-adv-x="1451" 
 />
    <glyph glyph-name="SF360000" unicode="&#x255e;" horiz-adv-x="1451" 
 />
    <glyph glyph-name="SF370000" unicode="&#x255f;" horiz-adv-x="1451" 
 />
    <glyph glyph-name="SF420000" unicode="&#x2560;" horiz-adv-x="1451" 
 />
    <glyph glyph-name="SF190000" unicode="&#x2561;" horiz-adv-x="1451" 
 />
    <glyph glyph-name="SF200000" unicode="&#x2562;" horiz-adv-x="1451" 
 />
    <glyph glyph-name="SF230000" unicode="&#x2563;" horiz-adv-x="1451" 
 />
    <glyph glyph-name="SF470000" unicode="&#x2564;" horiz-adv-x="1451" 
 />
    <glyph glyph-name="SF480000" unicode="&#x2565;" horiz-adv-x="1451" 
 />
    <glyph glyph-name="SF410000" unicode="&#x2566;" horiz-adv-x="1451" 
 />
    <glyph glyph-name="SF450000" unicode="&#x2567;" horiz-adv-x="1451" 
 />
    <glyph glyph-name="SF460000" unicode="&#x2568;" horiz-adv-x="1451" 
 />
    <glyph glyph-name="SF400000" unicode="&#x2569;" horiz-adv-x="1451" 
 />
    <glyph glyph-name="SF540000" unicode="&#x256a;" horiz-adv-x="1451" 
 />
    <glyph glyph-name="SF530000" unicode="&#x256b;" horiz-adv-x="1451" 
 />
    <glyph glyph-name="SF440000" unicode="&#x256c;" horiz-adv-x="1451" 
 />
    <glyph glyph-name="upblock" unicode="&#x2580;" horiz-adv-x="1451" 
 />
    <glyph glyph-name="dnblock" unicode="&#x2584;" horiz-adv-x="1451" 
 />
    <glyph glyph-name="block" unicode="&#x2588;" horiz-adv-x="1451" 
 />
    <glyph glyph-name="lfblock" unicode="&#x258c;" horiz-adv-x="1451" 
 />
    <glyph glyph-name="rtblock" unicode="&#x2590;" horiz-adv-x="1451" 
 />
    <glyph glyph-name="ltshade" unicode="&#x2591;" horiz-adv-x="1451" 
 />
    <glyph glyph-name="shade" unicode="&#x2592;" horiz-adv-x="1451" 
 />
    <glyph glyph-name="dkshade" unicode="&#x2593;" horiz-adv-x="1493" 
 />
    <glyph glyph-name="filledbox" unicode="&#x25a0;" horiz-adv-x="1237" 
 />
    <glyph glyph-name="H22073" unicode="&#x25a1;" horiz-adv-x="1237" 
 />
    <glyph glyph-name="H18543" unicode="&#x25aa;" horiz-adv-x="726" 
 />
    <glyph glyph-name="H18551" unicode="&#x25ab;" horiz-adv-x="726" 
 />
    <glyph glyph-name="filledrect" unicode="&#x25ac;" horiz-adv-x="2048" 
 />
    <glyph glyph-name="triagup" unicode="&#x25b2;" horiz-adv-x="2027" 
 />
    <glyph glyph-name="triagrt" unicode="&#x25ba;" horiz-adv-x="2027" 
 />
    <glyph glyph-name="triagdn" unicode="&#x25bc;" horiz-adv-x="2027" 
 />
    <glyph glyph-name="triaglf" unicode="&#x25c4;" horiz-adv-x="2027" 
 />
    <glyph glyph-name="lozenge" unicode="&#x25ca;" horiz-adv-x="1012" 
 />
    <glyph glyph-name="circle" unicode="&#x25cb;" horiz-adv-x="1237" 
 />
    <glyph glyph-name="H18533" unicode="&#x25cf;" horiz-adv-x="1237" 
 />
    <glyph glyph-name="invbullet" unicode="&#x25d8;" horiz-adv-x="1237" 
 />
    <glyph glyph-name="invcircle" unicode="&#x25d9;" horiz-adv-x="1237" 
 />
    <glyph glyph-name="openbullet" unicode="&#x25e6;" horiz-adv-x="726" 
 />
    <glyph glyph-name="smileface" unicode="&#x263a;" horiz-adv-x="2091" 
 />
    <glyph glyph-name="invsmileface" unicode="&#x263b;" horiz-adv-x="2155" 
 />
    <glyph glyph-name="sun" unicode="&#x263c;" horiz-adv-x="1877" 
 />
    <glyph glyph-name="female" unicode="&#x2640;" horiz-adv-x="1536" 
 />
    <glyph glyph-name="male" unicode="&#x2642;" horiz-adv-x="1536" 
 />
    <glyph glyph-name="spade" unicode="&#x2660;" horiz-adv-x="1088" 
 />
    <glyph glyph-name="club" unicode="&#x2663;" horiz-adv-x="1344" 
 />
    <glyph glyph-name="heart" unicode="&#x2665;" horiz-adv-x="1216" 
 />
    <glyph glyph-name="diamond" unicode="&#x2666;" horiz-adv-x="1045" 
 />
    <glyph glyph-name="musicalnote" unicode="&#x266a;" horiz-adv-x="1024" 
 />
    <glyph glyph-name="musicalnotedbl" unicode="&#x266b;" horiz-adv-x="1536" 
 />
    <glyph glyph-name="uniF001" unicode="&#xf001;" horiz-adv-x="1024" 
 />
    <glyph glyph-name="uniF001" unicode="&#xfb01;" horiz-adv-x="1024" 
 />
    <glyph glyph-name="uniF002" unicode="&#xf002;" horiz-adv-x="1024" 
 />
    <glyph glyph-name="uniF002" unicode="&#xfb02;" horiz-adv-x="1024" 
 />
    <glyph glyph-name="uniF004" unicode="&#xf004;" horiz-adv-x="682" 
 />
    <glyph glyph-name="uniF005" unicode="&#xf005;" horiz-adv-x="682" 
 />
    <glyph glyph-name=".null" horiz-adv-x="0" 
 />
    <glyph glyph-name="nonmarkingreturn" horiz-adv-x="569" 
 />
    <glyph glyph-name="grave" horiz-adv-x="682" 
 />
    <glyph glyph-name="a" 
 />
    <glyph glyph-name="b" 
 />
    <glyph glyph-name="c" horiz-adv-x="1024" 
 />
    <glyph glyph-name="d" 
 />
    <glyph glyph-name="e" 
 />
    <glyph glyph-name="f" horiz-adv-x="569" 
 />
    <glyph glyph-name="g" 
 />
    <glyph glyph-name="h" 
 />
    <glyph glyph-name="i" horiz-adv-x="455" 
 />
    <glyph glyph-name="j" horiz-adv-x="455" 
 />
    <glyph glyph-name="k" horiz-adv-x="1024" 
 />
    <glyph glyph-name="l" horiz-adv-x="455" 
 />
    <glyph glyph-name="m" horiz-adv-x="1706" 
 />
    <glyph glyph-name="n" 
 />
    <glyph glyph-name="o" 
 />
    <glyph glyph-name="p" 
 />
    <glyph glyph-name="q" 
 />
    <glyph glyph-name="r" horiz-adv-x="682" 
 />
    <glyph glyph-name="s" horiz-adv-x="1024" 
 />
    <glyph glyph-name="t" horiz-adv-x="569" 
 />
    <glyph glyph-name="u" 
 />
    <glyph glyph-name="v" horiz-adv-x="1024" 
 />
    <glyph glyph-name="w" horiz-adv-x="1479" 
 />
    <glyph glyph-name="x" horiz-adv-x="1024" 
 />
    <glyph glyph-name="y" horiz-adv-x="1024" 
 />
    <glyph glyph-name="z" horiz-adv-x="1024" 
 />
    <glyph glyph-name="glyph155" horiz-adv-x="1124" 
 />
    </font>
</defs>
</svg>
